  0
SECTION
  2
HEADER
  9
$ACADVER
  1
AC1018
  9
$ACADMAINTVER
 70
   104
  9
$DWGCODEPAGE
  3
ANSI_1252
  9
$INSBASE
 10
0.0
 20
0.0
 30
0.0
  9
$EXTMIN
 10
-742.499970
 20
-524.999990
 30
0.000000
  9
$EXTMAX
 10
742.500020
 20
525.000000
 30
0.000000
  9
$LIMMIN
 10
0.0
 20
0.0
  9
$LIMMAX
 10
420.0
 20
297.0
  9
$ORTHOMODE
 70
     0
  9
$REGENMODE
 70
     1
  9
$FILLMODE
 70
     1
  9
$QTEXTMODE
 70
     0
  9
$MIRRTEXT
 70
     0
  9
$LTSCALE
 40
50.000000
  9
$ATTMODE
 70
     1
  9
$TEXTSIZE
 40
2.5
  9
$TRACEWID
 40
1.0
  9
$TEXTSTYLE
  7
Standard
  9
$CLAYER
  8
0
  9
$CELTYPE
  6
ByLayer
  9
$CECOLOR
 62
   256
  9
$CELTSCALE
 40
1.0
  9
$DISPSILH
 70
     0
  9
$DIMSCALE
 40
1.0
  9
$DIMASZ
 40
2.5
  9
$DIMEXO
 40
0.625
  9
$DIMDLI
 40
3.75
  9
$DIMRND
 40
0.0
  9
$DIMDLE
 40
0.0
  9
$DIMEXE
 40
1.25
  9
$DIMTP
 40
0.0
  9
$DIMTM
 40
0.0
  9
$DIMTXT
 40
2.5
  9
$DIMCEN
 40
2.5
  9
$DIMTSZ
 40
0.0
  9
$DIMTOL
 70
     0
  9
$DIMLIM
 70
     0
  9
$DIMTIH
 70
     0
  9
$DIMTOH
 70
     0
  9
$DIMSE1
 70
     0
  9
$DIMSE2
 70
     0
  9
$DIMTAD
 70
     1
  9
$DIMZIN
 70
     8
  9
$DIMBLK
  1

  9
$DIMASO
 70
     1
  9
$DIMSHO
 70
     1
  9
$DIMPOST
  1

  9
$DIMAPOST
  1

  9
$DIMALT
 70
     0
  9
$DIMALTD
 70
     3
  9
$DIMALTF
 40
0.03937007874016
  9
$DIMLFAC
 40
1.0
  9
$DIMTOFL
 70
     1
  9
$DIMTVP
 40
0.0
  9
$DIMTIX
 70
     0
  9
$DIMSOXD
 70
     0
  9
$DIMSAH
 70
     0
  9
$DIMBLK1
  1

  9
$DIMBLK2
  1

  9
$DIMSTYLE
  2
ISO-25
  9
$DIMCLRD
 70
     0
  9
$DIMCLRE
 70
     0
  9
$DIMCLRT
 70
     0
  9
$DIMTFAC
 40
1.0
  9
$DIMGAP
 40
0.625
  9
$DIMJUST
 70
     0
  9
$DIMSD1
 70
     0
  9
$DIMSD2
 70
     0
  9
$DIMTOLJ
 70
     0
  9
$DIMTZIN
 70
     8
  9
$DIMALTZ
 70
     0
  9
$DIMALTTZ
 70
     0
  9
$DIMUPT
 70
     0
  9
$DIMDEC
 70
     2
  9
$DIMTDEC
 70
     2
  9
$DIMALTU
 70
     2
  9
$DIMALTTD
 70
     3
  9
$DIMTXSTY
  7
Standard
  9
$DIMAUNIT
 70
     0
  9
$DIMADEC
 70
     0
  9
$DIMALTRND
 40
0.0
  9
$DIMAZIN
 70
     0
  9
$DIMDSEP
 70
    44
  9
$DIMATFIT
 70
     3
  9
$DIMFRAC
 70
     0
  9
$DIMLDRBLK
  1

  9
$DIMLUNIT
 70
     2
  9
$DIMLWD
 70
    -2
  9
$DIMLWE
 70
    -2
  9
$DIMTMOVE
 70
     0
  9
$LUNITS
 70
     2
  9
$LUPREC
 70
     4
  9
$SKETCHINC
 40
1.0
  9
$FILLETRAD
 40
10.0
  9
$AUNITS
 70
     0
  9
$AUPREC
 70
     0
  9
$MENU
  1
.
  9
$ELEVATION
 40
0.0
  9
$PELEVATION
 40
0.0
  9
$THICKNESS
 40
0.0
  9
$LIMCHECK
 70
     0
  9
$CHAMFERA
 40
10.0
  9
$CHAMFERB
 40
10.0
  9
$CHAMFERC
 40
20.0
  9
$CHAMFERD
 40
0.0
  9
$SKPOLY
 70
     0
  9
$TDCREATE
 40
2452006.439837951
  9
$TDUCREATE
 40
2452006.356504618
  9
$TDUPDATE
 40
2452006.439963946
  9
$TDUUPDATE
 40
2452006.356630613
  9
$TDINDWG
 40
0.0001273843
  9
$TDUSRTIMER
 40
0.0001272685
  9
$USRTIMER
 70
     1
  9
$ANGBASE
 50
0.0
  9
$ANGDIR
 70
     0
  9
$PDMODE
 70
     0
  9
$PDSIZE
 40
0.0
  9
$PLINEWID
 40
0.0
  9
$SPLFRAME
 70
     0
  9
$SPLINETYPE
 70
     6
  9
$SPLINESEGS
 70
     8
  9
$HANDSEED
  5
9EB
  9
$SURFTAB1
 70
     6
  9
$SURFTAB2
 70
     6
  9
$SURFTYPE
 70
     6
  9
$SURFU
 70
     6
  9
$SURFV
 70
     6
  9
$UCSBASE
  2

  9
$UCSNAME
  2

  9
$UCSORG
 10
0.0
 20
0.0
 30
0.0
  9
$UCSXDIR
 10
1.0
 20
0.0
 30
0.0
  9
$UCSYDIR
 10
0.0
 20
1.0
 30
0.0
  9
$UCSORTHOREF
  2

  9
$UCSORTHOVIEW
 70
     0
  9
$UCSORGTOP
 10
0.0
 20
0.0
 30
0.0
  9
$UCSORGBOTTOM
 10
0.0
 20
0.0
 30
0.0
  9
$UCSORGLEFT
 10
0.0
 20
0.0
 30
0.0
  9
$UCSORGRIGHT
 10
0.0
 20
0.0
 30
0.0
  9
$UCSORGFRONT
 10
0.0
 20
0.0
 30
0.0
  9
$UCSORGBACK
 10
0.0
 20
0.0
 30
0.0
  9
$PUCSBASE
  2

  9
$PUCSNAME
  2

  9
$PUCSORG
 10
0.0
 20
0.0
 30
0.0
  9
$PUCSXDIR
 10
1.0
 20
0.0
 30
0.0
  9
$PUCSYDIR
 10
0.0
 20
1.0
 30
0.0
  9
$PUCSORTHOREF
  2

  9
$PUCSORTHOVIEW
 70
     0
  9
$PUCSORGTOP
 10
0.0
 20
0.0
 30
0.0
  9
$PUCSORGBOTTOM
 10
0.0
 20
0.0
 30
0.0
  9
$PUCSORGLEFT
 10
0.0
 20
0.0
 30
0.0
  9
$PUCSORGRIGHT
 10
0.0
 20
0.0
 30
0.0
  9
$PUCSORGFRONT
 10
0.0
 20
0.0
 30
0.0
  9
$PUCSORGBACK
 10
0.0
 20
0.0
 30
0.0
  9
$USERI1
 70
     0
  9
$USERI2
 70
     0
  9
$USERI3
 70
     0
  9
$USERI4
 70
     0
  9
$USERI5
 70
     0
  9
$USERR1
 40
0.0
  9
$USERR2
 40
0.0
  9
$USERR3
 40
0.0
  9
$USERR4
 40
0.0
  9
$USERR5
 40
0.0
  9
$WORLDVIEW
 70
     1
  9
$SHADEDGE
 70
     3
  9
$SHADEDIF
 70
    70
  9
$TILEMODE
 70
     1
  9
$MAXACTVP
 70
    64
  9
$PINSBASE
 10
0.0
 20
0.0
 30
0.0
  9
$PLIMCHECK
 70
     0
  9
$PEXTMIN
 10
1.000000000000000E+20
 20
1.000000000000000E+20
 30
1.000000000000000E+20
  9
$PEXTMAX
 10
-1.000000000000000E+20
 20
-1.000000000000000E+20
 30
-1.000000000000000E+20
  9
$PLIMMIN
 10
0.0
 20
0.0
  9
$PLIMMAX
 10
420.0
 20
297.0
  9
$UNITMODE
 70
     0
  9
$VISRETAIN
 70
     1
  9
$PLINEGEN
 70
     0
  9
$PSLTSCALE
 70
     1
  9
$TREEDEPTH
 70
  3020
  9
$CMLSTYLE
  2
Standard
  9
$CMLJUST
 70
     0
  9
$CMLSCALE
 40
20.0
  9
$PROXYGRAPHICS
 70
     1
  9
$MEASUREMENT
 70
     1
  9
$CELWEIGHT
370
    -1
  9
$ENDCAPS
280
     0
  9
$JOINSTYLE
280
     0
  9
$LWDISPLAY
290
     0
  9
$INSUNITS
 70
     4
  9
$HYPERLINKBASE
  1

  9
$STYLESHEET
  1

  9
$XEDIT
290
     1
  9
$CEPSNTYPE
380
     0
  9
$PSTYLEMODE
290
     1
  9
$FINGERPRINTGUID
  2

  9
$VERSIONGUID
  2

  9
$EXTNAMES
290
     1
  9
$PSVPSCALE
 40
0.0
  9
$OLESTARTUP
290
     0
  9
$SORTENTS
280
   127
  9
$INDEXCTL
280
     0
  9
$HIDETEXT
280
     1
  9
$XCLIPFRAME
290
     0
  9
$HALOGAP
280
     0
  9
$OBSCOLOR
 70
   257
  9
$OBSLTYPE
280
     0
  9
$INTERSECTIONDISPLAY
280
     0
  9
$INTERSECTIONCOLOR
 70
   257
  9
$DIMASSOC
280
     2
  9
$PROJECTNAME
  1

  0
ENDSEC
  0
SECTION
  2
CLASSES
  0
CLASS
  1
ACDBDICTIONARYWDFLT
  2
AcDbDictionaryWithDefault
  3
ObjectDBX Classes
 90
        0
 91
        1
280
     0
281
     0
  0
CLASS
  1
ACDBPLACEHOLDER
  2
AcDbPlaceHolder
  3
ObjectDBX Classes
 90
        0
 91
        1
280
     0
281
     0
  0
CLASS
  1
LAYOUT
  2
AcDbLayout
  3
ObjectDBX Classes
 90
        0
 91
        2
280
     0
281
     0
  0
CLASS
  1
DICTIONARYVAR
  2
AcDbDictionaryVar
  3
ObjectDBX Classes
 90
        0
 91
        7
280
     0
281
     0
  0
CLASS
  1
TABLESTYLE
  2
AcDbTableStyle
  3
ObjectDBX Classes
 90
     4095
 91
        1
280
     0
281
     0
  0
CLASS
  1
MATERIAL
  2
AcDbMaterial
  3
ObjectDBX Classes
 90
     1153
 91
        3
280
     0
281
     0
  0
CLASS
  1
VISUALSTYLE
  2
AcDbVisualStyle
  3
ObjectDBX Classes
 90
     4095
 91
       16
280
     0
281
     0
  0
CLASS
  1
SCALE
  2
AcDbScale
  3
ObjectDBX Classes
 90
     1153
 91
       17
280
     0
281
     0
  0
CLASS
  1
MLEADERSTYLE
  2
AcDbMLeaderStyle
  3
ACDB_MLEADERSTYLE_CLASS
 90
     4095
 91
        1
280
     0
281
     0
  0
CLASS
  1
CELLSTYLEMAP
  2
AcDbCellStyleMap
  3
ObjectDBX Classes
 90
     1152
 91
        2
280
     0
281
     0
  0
CLASS
  1
EXACXREFPANELOBJECT
  2
ExAcXREFPanelObject
  3
EXAC_ESW
 90
    33793
 91
        0
280
     0
281
     0
  0
CLASS
  1
NPOCOLLECTION
  2
AcDbImpNonPersistentObjectsCollection
  3
ObjectDBX Classes
 90
     1153
 91
        0
280
     0
281
     0
  0
CLASS
  1
LAYER_INDEX
  2
AcDbLayerIndex
  3
ObjectDBX Classes
 90
        0
 91
        0
280
     0
281
     0
  0
CLASS
  1
SPATIAL_INDEX
  2
AcDbSpatialIndex
  3
ObjectDBX Classes
 90
        0
 91
        0
280
     0
281
     0
  0
CLASS
  1
IDBUFFER
  2
AcDbIdBuffer
  3
ObjectDBX Classes
 90
        0
 91
        0
280
     0
281
     0
  0
CLASS
  1
RASTERVARIABLES
  2
AcDbRasterVariables
  3
ISM
 90
        0
 91
        2
280
     0
281
     0
  0
CLASS
  1
IMAGEDEF
  2
AcDbRasterImageDef
  3
ISM
 90
        0
 91
        5
280
     0
281
     0
  0
CLASS
  1
IMAGEDEF_REACTOR
  2
AcDbRasterImageDefReactor
  3
ISM
 90
        1
 91
        5
280
     0
281
     0
  0
CLASS
  1
IMAGE
  2
AcDbRasterImage
  3
ISM
 90
     2175
 91
        5
280
     0
281
     1
  0
CLASS
  1
LWPOLYLINE
  2
AcDbPolyline
  3
ObjectDBX Classes
 90
        0
 91
        0
280
     0
281
     1
  0
CLASS
  1
OLE2FRAME
  2
AcDbOle2Frame
  3
ObjectDBX Classes
 90
        0
 91
        0
280
     0
281
     1
  0
CLASS
  1
HATCH
  2
AcDbHatch
  3
ObjectDBX Classes
 90
        0
 91
        0
280
     0
281
     1
  0
CLASS
  1
XRECORD
  2
AcDbXrecord
  3
ObjectDBX Classes
 90
        0
 91
        9
280
     0
281
     0
  0
CLASS
  1
SORTENTSTABLE
  2
AcDbSortentsTable
  3
ObjectDBX Classes
 90
        0
 91
        0
280
     0
281
     0
  0
CLASS
  1
OBJECT_PTR
  2
CAseDLPNTableRecord
  3
"ASE-LPNTableRecord"
 90
    32769
 91
        0
280
     0
281
     0
  0
CLASS
  1
PLOTSETTINGS
  2
AcDbPlotSettings
  3
ObjectDBX Classes
 90
        0
 91
        0
280
     0
281
     0
  0
CLASS
  1
VBA_PROJECT
  2
AcDbVbaProject
  3
acad
 90
        0
 91
        0
280
     0
281
     0
  0
CLASS
  1
WIPEOUT
  2
AcDbWipeout
  3
WipeOut|AutoCAD Express Tool|expresstools@autodesk.com
 90
    32895
 91
        0
280
     0
281
     1
  0
CLASS
  1
WIPEOUTVARIABLES
  2
AcDbWipeoutVariables
  3
WipeOut|AutoCAD Express Tool|expresstools@autodesk.com
 90
    32768
 91
        0
280
     0
281
     0
  0
CLASS
  1
RTEXT
  2
RText
  3
RText|AutoCAD Express Tool|expresstools@autodesk.com
 90
    32768
 91
        0
280
     0
281
     1
  0
CLASS
  1
ARCALIGNEDTEXT
  2
AcDbArcAlignedText
  3
ATEXT|AutoCAD Express Tool|expresstools@autodesk.com
 90
    32768
 91
        0
280
     0
281
     1
  0
ENDSEC
  0
SECTION
  2
TABLES
  0
TABLE
  2
VPORT
  5
201
100
AcDbSymbolTable
 70
     2
  0
VPORT
  5
202
100
AcDbSymbolTableRecord
100
AcDbViewportTableRecord
  2
*ACTIVE
 70
     0
 10
0.000000
 20
0.000000
 11
1.000000
 21
1.000000
 12
50.000000
 22
50.000000
 13
0.000000
 23
0.000000
 14
1.000000
 24
1.000000
 15
10.000000
 25
10.000000
 16
0.000000
 26
0.000000
 36
1.000000
 17
0.000000
 27
0.000000
 37
0.000000
 40
100.000000
 41
1.387409
 42
50.000000
 43
0.000000
 44
0.000000
 50
0.000000
 51
0.000000
 71
     0
 72
   100
 73
     1
 74
     1
 75
     0
 76
     0
 77
     0
 78
     0
  0
ENDTAB
  0
TABLE
  2
LTYPE
  5
203
330
0
100
AcDbSymbolTable
 70
    10
  0
LTYPE
  5
204
330
203
100
AcDbSymbolTableRecord
100
AcDbLinetypeTableRecord
  2
ByBlock
 70
     0
  3

 72
    65
 73
     0
 40
0.000000
  0
LTYPE
  5
205
330
203
100
AcDbSymbolTableRecord
100
AcDbLinetypeTableRecord
  2
ByLayer
 70
     0
  3

 72
    65
 73
     0
 40
0.000000
  0
LTYPE
  5
206
330
203
100
AcDbSymbolTableRecord
100
AcDbLinetypeTableRecord
  2
CONTINUOUS
 70
     0
  3
Solid line
 72
    65
 73
     0
 40
0.000000
  0
LTYPE
  5
207
330
203
100
AcDbSymbolTableRecord
100
AcDbLinetypeTableRecord
  2
HIDDEN
 70
     0
  3
_ _ _ _ _ _ _ _ _ _ _ _ _ _ _ _ _ _ _ _ _ _ _
 72
    65
 73
     2
 40
0.375000
 49
0.250000
 74
     0
 49
-0.125000
 74
     0
  0
LTYPE
  5
208
330
203
100
AcDbSymbolTableRecord
100
AcDbLinetypeTableRecord
  2
DOT
 70
     0
  3
...............................................
 72
    65
 73
     2
 40
0.250000
 49
0.000000
 74
     0
 49
-0.250000
 74
     0
  0
LTYPE
  5
209
330
203
100
AcDbSymbolTableRecord
100
AcDbLinetypeTableRecord
  2
DASHED
 70
     0
  3
__ __ __ __ __ __ __ __ __ __ __ __ __ __ __ 
 72
    65
 73
     2
 40
0.750000
 49
0.500000
 74
     0
 49
-0.250000
 74
     0
  0
LTYPE
  5
20A
330
203
100
AcDbSymbolTableRecord
100
AcDbLinetypeTableRecord
  2
DASHDOT
 70
     0
  3
__ . __ . __ . __ . __ . __ . __ . __ . __ . __
 72
    65
 73
     4
 40
1.000000
 49
0.500000
 74
     0
 49
-0.250000
 74
     0
 49
0.000000
 74
     0
 49
-0.250000
 74
     0
  0
LTYPE
  5
20B
330
203
100
AcDbSymbolTableRecord
100
AcDbLinetypeTableRecord
  2
BORDER
 70
     0
  3
__ __ . __ __ . __ __ . __ __ . __ __ . __ __
 72
    65
 73
     6
 40
1.750000
 49
0.500000
 74
     0
 49
-0.250000
 74
     0
 49
0.500000
 74
     0
 49
-0.250000
 74
     0
 49
0.000000
 74
     0
 49
-0.250000
 74
     0
  0
LTYPE
  5
20C
330
203
100
AcDbSymbolTableRecord
100
AcDbLinetypeTableRecord
  2
CENTER
 70
     0
  3
____ _ ____ _ ____ _ ____ _ ____ _ ____ _ ____
 72
    65
 73
     4
 40
2.000000
 49
1.250000
 74
     0
 49
-0.250000
 74
     0
 49
0.250000
 74
     0
 49
-0.250000
 74
     0
  0
LTYPE
  5
20D
330
203
100
AcDbSymbolTableRecord
100
AcDbLinetypeTableRecord
  2
DIVIDE
 70
     0
  3
__ . . __ . . __ . . __ . . __ . . __ . . __
 72
    65
 73
     6
 40
1.250000
 49
0.500000
 74
     0
 49
-0.250000
 74
     0
 49
0.000000
 74
     0
 49
-0.250000
 74
     0
 49
0.000000
 74
     0
 49
-0.250000
 74
     0
  0
ENDTAB
  0
TABLE
  2
LAYER
  5
20E
100
AcDbSymbolTable
 70
     1
  0
LAYER
  5
20F
100
AcDbSymbolTableRecord
100
AcDbLayerTableRecord
  2
0
 70
     0
 62
     7
  6
CONTINUOUS
370
    -3
390
     0
  0
LAYER
  5
250
100
AcDbSymbolTableRecord
100
AcDbLayerTableRecord
  2
L
 70
     0
 62
     7
  6
CONTINUOUS
370
    -3
390
     0
  0
LAYER
  5
7A1
100
AcDbSymbolTableRecord
100
AcDbLayerTableRecord
  2
MASSE
 70
     0
 62
     7
  6
CONTINUOUS
370
    -3
390
     0
  0
ENDTAB
  0
TABLE
  2
STYLE
  5
96B
100
AcDbSymbolTable
 70
     2
  0
STYLE
  5
96C
100
AcDbSymbolTableRecord
100
AcDbTextStyleTableRecord
  2
STANDARD
 70
     0
 40
0.000000
 41
1.000000
 50
0.000000
 71
     0
 42
3.500000
  3
txt
  4

  0
STYLE
  5
96D
100
AcDbSymbolTableRecord
100
AcDbTextStyleTableRecord
  2
TXT8
 70
     0
 40
0.000000
 41
1.000000
 50
0.000000
 71
     0
 42
3.500000
  3
txt8
  4

  0
ENDTAB
  0
TABLE
  2
DIMSTYLE
  5
96E
100
AcDbSymbolTable
100
AcDbDimStyleTable
 70
     3
  0
DIMSTYLE
105
96F
100
AcDbSymbolTableRecord
100
AcDbDimStyleTableRecord
  2
CAD400-DIM0
 70
     0
  3

  4

  5

  6

  7

 40
5.000000
 41
2.000000
 42
5.641000
 43
0.000000
 44
1.800000
 45
0.000000
 46
0.000000
 47
0.000000
 48
0.000000
140
3.500000
141
0.000000
142
0.000000
143
25.400000
144
1.000000
145
0.000000
146
1.000000
147
0.090000
 71
     0
 72
     0
 73
     0
 74
     0
 75
     0
 76
     0
 77
     1
 78
     8
170
     0
171
     2
172
     1
173
     0
174
     0
175
     0
176
     3
177
     3
178
     7
  0
DIMSTYLE
105
970
100
AcDbSymbolTableRecord
100
AcDbDimStyleTableRecord
  2
CAD400-DIM1
 70
     0
  3

  4

  5

  6

  7

 40
5.000000
 41
2.000000
 42
13.605000
 43
0.000000
 44
1.800000
 45
0.000000
 46
0.000000
 47
0.000000
 48
0.000000
140
3.500000
141
0.000000
142
0.000000
143
25.400000
144
1.000000
145
0.000000
146
1.000000
147
0.090000
 71
     0
 72
     0
 73
     0
 74
     0
 75
     0
 76
     0
 77
     1
 78
     8
170
     0
171
     2
172
     1
173
     0
174
     0
175
     0
176
     3
177
     3
178
     7
  0
DIMSTYLE
105
971
100
AcDbSymbolTableRecord
100
AcDbDimStyleTableRecord
  2
CAD400-DIM2
 70
     0
  3

  4

  5

  6

  7

 40
5.000000
 41
2.000000
 42
0.010000
 43
0.000000
 44
1.800000
 45
0.000000
 46
0.000000
 47
0.000000
 48
0.000000
140
3.500000
141
0.000000
142
0.000000
143
25.400000
144
1.000000
145
0.000000
146
1.000000
147
0.090000
 71
     0
 72
     0
 73
     0
 74
     0
 75
     0
 76
     0
 77
     1
 78
     8
170
     0
171
     2
172
     1
173
     0
174
     0
175
     0
176
     3
177
     3
178
     7
  0
ENDTAB
  0
TABLE
  2
VIEW
  5
972
100
AcDbSymbolTable
 70
     0
  0
ENDTAB
  0
TABLE
  2
UCS
  5
973
100
AcDbSymbolTable
 70
     0
  0
ENDTAB
  0
TABLE
  2
APPID
  5
974
100
AcDbSymbolTable
 70
     1
  0
APPID
  5
975
100
AcDbSymbolTableRecord
100
AcDbRegAppTableRecord
  2
ACAD
 70
     0
  0
ENDTAB
  0
TABLE
  2
BLOCK_RECORD
  5
976
100
AcDbSymbolTable
 70
   117
  0
BLOCK_RECORD
  5
210
102
{ACAD_XDICTIONARY
360
211
102
}
100
AcDbSymbolTableRecord
100
AcDbBlockTableRecord
  2
*Model_Space
  0
BLOCK_RECORD
  5
977
100
AcDbSymbolTableRecord
100
AcDbBlockTableRecord
  2
*Paper_Space
  0
BLOCK_RECORD
  5
978
100
AcDbSymbolTableRecord
100
AcDbBlockTableRecord
  2
*Paper_Space0
  0
BLOCK_RECORD
  5
979
100
AcDbSymbolTableRecord
100
AcDbBlockTableRecord
  2
B
  0
BLOCK_RECORD
  5
97A
100
AcDbSymbolTableRecord
100
AcDbBlockTableRecord
  2
B-2
  0
BLOCK_RECORD
  5
97B
100
AcDbSymbolTableRecord
100
AcDbBlockTableRecord
  2
B-3
  0
BLOCK_RECORD
  5
97C
100
AcDbSymbolTableRecord
100
AcDbBlockTableRecord
  2
B-4
  0
BLOCK_RECORD
  5
97D
100
AcDbSymbolTableRecord
100
AcDbBlockTableRecord
  2
B-5
  0
BLOCK_RECORD
  5
97E
100
AcDbSymbolTableRecord
100
AcDbBlockTableRecord
  2
B-6
  0
BLOCK_RECORD
  5
97F
100
AcDbSymbolTableRecord
100
AcDbBlockTableRecord
  2
B-7
  0
BLOCK_RECORD
  5
980
100
AcDbSymbolTableRecord
100
AcDbBlockTableRecord
  2
B-8
  0
BLOCK_RECORD
  5
981
100
AcDbSymbolTableRecord
100
AcDbBlockTableRecord
  2
B-9
  0
BLOCK_RECORD
  5
982
100
AcDbSymbolTableRecord
100
AcDbBlockTableRecord
  2
B-10
  0
BLOCK_RECORD
  5
983
100
AcDbSymbolTableRecord
100
AcDbBlockTableRecord
  2
B-11
  0
BLOCK_RECORD
  5
984
100
AcDbSymbolTableRecord
100
AcDbBlockTableRecord
  2
B-12
  0
BLOCK_RECORD
  5
985
100
AcDbSymbolTableRecord
100
AcDbBlockTableRecord
  2
B-13
  0
BLOCK_RECORD
  5
986
100
AcDbSymbolTableRecord
100
AcDbBlockTableRecord
  2
B-14
  0
BLOCK_RECORD
  5
987
100
AcDbSymbolTableRecord
100
AcDbBlockTableRecord
  2
B-15
  0
BLOCK_RECORD
  5
988
100
AcDbSymbolTableRecord
100
AcDbBlockTableRecord
  2
B-16
  0
BLOCK_RECORD
  5
989
100
AcDbSymbolTableRecord
100
AcDbBlockTableRecord
  2
B-17
  0
BLOCK_RECORD
  5
98A
100
AcDbSymbolTableRecord
100
AcDbBlockTableRecord
  2
B-18
  0
BLOCK_RECORD
  5
98B
100
AcDbSymbolTableRecord
100
AcDbBlockTableRecord
  2
B-19
  0
BLOCK_RECORD
  5
98C
100
AcDbSymbolTableRecord
100
AcDbBlockTableRecord
  2
B-20
  0
BLOCK_RECORD
  5
98D
100
AcDbSymbolTableRecord
100
AcDbBlockTableRecord
  2
B-21
  0
BLOCK_RECORD
  5
98E
100
AcDbSymbolTableRecord
100
AcDbBlockTableRecord
  2
B-22
  0
BLOCK_RECORD
  5
98F
100
AcDbSymbolTableRecord
100
AcDbBlockTableRecord
  2
B-23
  0
BLOCK_RECORD
  5
990
100
AcDbSymbolTableRecord
100
AcDbBlockTableRecord
  2
B-24
  0
BLOCK_RECORD
  5
991
100
AcDbSymbolTableRecord
100
AcDbBlockTableRecord
  2
B-25
  0
BLOCK_RECORD
  5
992
100
AcDbSymbolTableRecord
100
AcDbBlockTableRecord
  2
B-26
  0
BLOCK_RECORD
  5
993
100
AcDbSymbolTableRecord
100
AcDbBlockTableRecord
  2
B-27
  0
BLOCK_RECORD
  5
994
100
AcDbSymbolTableRecord
100
AcDbBlockTableRecord
  2
B-28
  0
BLOCK_RECORD
  5
995
100
AcDbSymbolTableRecord
100
AcDbBlockTableRecord
  2
B-29
  0
BLOCK_RECORD
  5
996
100
AcDbSymbolTableRecord
100
AcDbBlockTableRecord
  2
B-30
  0
BLOCK_RECORD
  5
997
100
AcDbSymbolTableRecord
100
AcDbBlockTableRecord
  2
B-31
  0
BLOCK_RECORD
  5
998
100
AcDbSymbolTableRecord
100
AcDbBlockTableRecord
  2
B-32
  0
BLOCK_RECORD
  5
999
100
AcDbSymbolTableRecord
100
AcDbBlockTableRecord
  2
B-33
  0
BLOCK_RECORD
  5
99A
100
AcDbSymbolTableRecord
100
AcDbBlockTableRecord
  2
B-34
  0
BLOCK_RECORD
  5
99B
100
AcDbSymbolTableRecord
100
AcDbBlockTableRecord
  2
B-35
  0
BLOCK_RECORD
  5
99C
100
AcDbSymbolTableRecord
100
AcDbBlockTableRecord
  2
B-36
  0
BLOCK_RECORD
  5
99D
100
AcDbSymbolTableRecord
100
AcDbBlockTableRecord
  2
B-37
  0
BLOCK_RECORD
  5
99E
100
AcDbSymbolTableRecord
100
AcDbBlockTableRecord
  2
B-38
  0
BLOCK_RECORD
  5
99F
100
AcDbSymbolTableRecord
100
AcDbBlockTableRecord
  2
B-39
  0
BLOCK_RECORD
  5
9A0
100
AcDbSymbolTableRecord
100
AcDbBlockTableRecord
  2
B-40
  0
BLOCK_RECORD
  5
9A1
100
AcDbSymbolTableRecord
100
AcDbBlockTableRecord
  2
B-41
  0
BLOCK_RECORD
  5
9A2
100
AcDbSymbolTableRecord
100
AcDbBlockTableRecord
  2
B-42
  0
BLOCK_RECORD
  5
9A3
100
AcDbSymbolTableRecord
100
AcDbBlockTableRecord
  2
B-43
  0
BLOCK_RECORD
  5
9A4
100
AcDbSymbolTableRecord
100
AcDbBlockTableRecord
  2
B-44
  0
BLOCK_RECORD
  5
9A5
100
AcDbSymbolTableRecord
100
AcDbBlockTableRecord
  2
B-45
  0
BLOCK_RECORD
  5
9A6
100
AcDbSymbolTableRecord
100
AcDbBlockTableRecord
  2
B-46
  0
BLOCK_RECORD
  5
9A7
100
AcDbSymbolTableRecord
100
AcDbBlockTableRecord
  2
B-47
  0
BLOCK_RECORD
  5
9A8
100
AcDbSymbolTableRecord
100
AcDbBlockTableRecord
  2
B-48
  0
BLOCK_RECORD
  5
9A9
100
AcDbSymbolTableRecord
100
AcDbBlockTableRecord
  2
B-49
  0
BLOCK_RECORD
  5
9AA
100
AcDbSymbolTableRecord
100
AcDbBlockTableRecord
  2
B-50
  0
BLOCK_RECORD
  5
9AB
100
AcDbSymbolTableRecord
100
AcDbBlockTableRecord
  2
*D0
  0
BLOCK_RECORD
  5
9AC
100
AcDbSymbolTableRecord
100
AcDbBlockTableRecord
  2
*D1
  0
BLOCK_RECORD
  5
9AD
100
AcDbSymbolTableRecord
100
AcDbBlockTableRecord
  2
*D2
  0
BLOCK_RECORD
  5
9AE
100
AcDbSymbolTableRecord
100
AcDbBlockTableRecord
  2
*D3
  0
BLOCK_RECORD
  5
9AF
100
AcDbSymbolTableRecord
100
AcDbBlockTableRecord
  2
B-52
  0
BLOCK_RECORD
  5
9B0
100
AcDbSymbolTableRecord
100
AcDbBlockTableRecord
  2
B-53
  0
BLOCK_RECORD
  5
9B1
100
AcDbSymbolTableRecord
100
AcDbBlockTableRecord
  2
rahmen
  0
BLOCK_RECORD
  5
9B2
100
AcDbSymbolTableRecord
100
AcDbBlockTableRecord
  2
ZNr
  0
BLOCK_RECORD
  5
9B3
100
AcDbSymbolTableRecord
100
AcDbBlockTableRecord
  2
datum1
  0
BLOCK_RECORD
  5
9B4
100
AcDbSymbolTableRecord
100
AcDbBlockTableRecord
  2
datum2
  0
BLOCK_RECORD
  5
9B5
100
AcDbSymbolTableRecord
100
AcDbBlockTableRecord
  2
datum3
  0
BLOCK_RECORD
  5
9B6
100
AcDbSymbolTableRecord
100
AcDbBlockTableRecord
  2
datum4
  0
BLOCK_RECORD
  5
9B7
100
AcDbSymbolTableRecord
100
AcDbBlockTableRecord
  2
datum5
  0
BLOCK_RECORD
  5
9B8
100
AcDbSymbolTableRecord
100
AcDbBlockTableRecord
  2
datum6
  0
BLOCK_RECORD
  5
9B9
100
AcDbSymbolTableRecord
100
AcDbBlockTableRecord
  2
datum7
  0
BLOCK_RECORD
  5
9BA
100
AcDbSymbolTableRecord
100
AcDbBlockTableRecord
  2
index7
  0
BLOCK_RECORD
  5
9BB
100
AcDbSymbolTableRecord
100
AcDbBlockTableRecord
  2
index1
  0
BLOCK_RECORD
  5
9BC
100
AcDbSymbolTableRecord
100
AcDbBlockTableRecord
  2
name3
  0
BLOCK_RECORD
  5
9BD
100
AcDbSymbolTableRecord
100
AcDbBlockTableRecord
  2
name5
  0
BLOCK_RECORD
  5
9BE
100
AcDbSymbolTableRecord
100
AcDbBlockTableRecord
  2
name1
  0
BLOCK_RECORD
  5
9BF
100
AcDbSymbolTableRecord
100
AcDbBlockTableRecord
  2
name7
  0
BLOCK_RECORD
  5
9C0
100
AcDbSymbolTableRecord
100
AcDbBlockTableRecord
  2
nummer1
  0
BLOCK_RECORD
  5
9C1
100
AcDbSymbolTableRecord
100
AcDbBlockTableRecord
  2
nummer7
  0
BLOCK_RECORD
  5
9C2
100
AcDbSymbolTableRecord
100
AcDbBlockTableRecord
  2
name2
  0
BLOCK_RECORD
  5
9C3
100
AcDbSymbolTableRecord
100
AcDbBlockTableRecord
  2
name4
  0
BLOCK_RECORD
  5
9C4
100
AcDbSymbolTableRecord
100
AcDbBlockTableRecord
  2
name6
  0
BLOCK_RECORD
  5
9C5
100
AcDbSymbolTableRecord
100
AcDbBlockTableRecord
  2
nummer2
  0
BLOCK_RECORD
  5
9C6
100
AcDbSymbolTableRecord
100
AcDbBlockTableRecord
  2
nummer3
  0
BLOCK_RECORD
  5
9C7
100
AcDbSymbolTableRecord
100
AcDbBlockTableRecord
  2
nummer4
  0
BLOCK_RECORD
  5
9C8
100
AcDbSymbolTableRecord
100
AcDbBlockTableRecord
  2
nummer5
  0
BLOCK_RECORD
  5
9C9
100
AcDbSymbolTableRecord
100
AcDbBlockTableRecord
  2
nummer6
  0
BLOCK_RECORD
  5
9CA
100
AcDbSymbolTableRecord
100
AcDbBlockTableRecord
  2
index2
  0
BLOCK_RECORD
  5
9CB
100
AcDbSymbolTableRecord
100
AcDbBlockTableRecord
  2
index3
  0
BLOCK_RECORD
  5
9CC
100
AcDbSymbolTableRecord
100
AcDbBlockTableRecord
  2
index4
  0
BLOCK_RECORD
  5
9CD
100
AcDbSymbolTableRecord
100
AcDbBlockTableRecord
  2
index5
  0
BLOCK_RECORD
  5
9CE
100
AcDbSymbolTableRecord
100
AcDbBlockTableRecord
  2
index6
  0
BLOCK_RECORD
  5
9CF
100
AcDbSymbolTableRecord
100
AcDbBlockTableRecord
  2
index8
  0
BLOCK_RECORD
  5
9D0
100
AcDbSymbolTableRecord
100
AcDbBlockTableRecord
  2
index9
  0
BLOCK_RECORD
  5
9D1
100
AcDbSymbolTableRecord
100
AcDbBlockTableRecord
  2
datum8
  0
BLOCK_RECORD
  5
9D2
100
AcDbSymbolTableRecord
100
AcDbBlockTableRecord
  2
name8
  0
BLOCK_RECORD
  5
9D3
100
AcDbSymbolTableRecord
100
AcDbBlockTableRecord
  2
name9
  0
BLOCK_RECORD
  5
9D4
100
AcDbSymbolTableRecord
100
AcDbBlockTableRecord
  2
nummer8
  0
BLOCK_RECORD
  5
9D5
100
AcDbSymbolTableRecord
100
AcDbBlockTableRecord
  2
nummer9
  0
BLOCK_RECORD
  5
9D6
100
AcDbSymbolTableRecord
100
AcDbBlockTableRecord
  2
aend1
  0
BLOCK_RECORD
  5
9D7
100
AcDbSymbolTableRecord
100
AcDbBlockTableRecord
  2
aend2
  0
BLOCK_RECORD
  5
9D8
100
AcDbSymbolTableRecord
100
AcDbBlockTableRecord
  2
aend3
  0
BLOCK_RECORD
  5
9D9
100
AcDbSymbolTableRecord
100
AcDbBlockTableRecord
  2
aend4
  0
BLOCK_RECORD
  5
9DA
100
AcDbSymbolTableRecord
100
AcDbBlockTableRecord
  2
aend5
  0
BLOCK_RECORD
  5
9DB
100
AcDbSymbolTableRecord
100
AcDbBlockTableRecord
  2
aend6
  0
BLOCK_RECORD
  5
9DC
100
AcDbSymbolTableRecord
100
AcDbBlockTableRecord
  2
aend7
  0
BLOCK_RECORD
  5
9DD
100
AcDbSymbolTableRecord
100
AcDbBlockTableRecord
  2
aend8
  0
BLOCK_RECORD
  5
9DE
100
AcDbSymbolTableRecord
100
AcDbBlockTableRecord
  2
aend9
  0
BLOCK_RECORD
  5
9DF
100
AcDbSymbolTableRecord
100
AcDbBlockTableRecord
  2
datum9
  0
BLOCK_RECORD
  5
9E0
100
AcDbSymbolTableRecord
100
AcDbBlockTableRecord
  2
sk
  0
BLOCK_RECORD
  5
9E1
100
AcDbSymbolTableRecord
100
AcDbBlockTableRecord
  2
B-86
  0
BLOCK_RECORD
  5
9E2
100
AcDbSymbolTableRecord
100
AcDbBlockTableRecord
  2
Be1
  0
BLOCK_RECORD
  5
9E3
100
AcDbSymbolTableRecord
100
AcDbBlockTableRecord
  2
B-87
  0
BLOCK_RECORD
  5
9E4
100
AcDbSymbolTableRecord
100
AcDbBlockTableRecord
  2
B-88
  0
BLOCK_RECORD
  5
9E5
100
AcDbSymbolTableRecord
100
AcDbBlockTableRecord
  2
Be2
  0
BLOCK_RECORD
  5
9E6
100
AcDbSymbolTableRecord
100
AcDbBlockTableRecord
  2
Be3
  0
BLOCK_RECORD
  5
9E7
100
AcDbSymbolTableRecord
100
AcDbBlockTableRecord
  2
DatErst1
  0
BLOCK_RECORD
  5
9E8
100
AcDbSymbolTableRecord
100
AcDbBlockTableRecord
  2
DatErst2
  0
BLOCK_RECORD
  5
9E9
100
AcDbSymbolTableRecord
100
AcDbBlockTableRecord
  2
Erst2
  0
BLOCK_RECORD
  5
9EA
100
AcDbSymbolTableRecord
100
AcDbBlockTableRecord
  2
Erst1
  0
ENDTAB
  0
ENDSEC
  0
SECTION
  2
BLOCKS
  0
BLOCK
  5
212
100
AcDbEntity
  8
0
100
AcDbBlockBegin
  2
*Model_Space
 70
     0
 10
0.000000
 20
0.000000
 30
0.000000
  3
*Model_Space
  1

  0
ENDBLK
  5
213
100
AcDbEntity
  8
0
100
AcDbBlockEnd
  0
BLOCK
  5
214
100
AcDbEntity
 67
     1
  8
0
100
AcDbBlockBegin
  2
*Paper_Space
 70
     0
 10
0.000000
 20
0.000000
 30
0.000000
  3
*Paper_Space
  1

  0
ENDBLK
  5
215
100
AcDbEntity
 67
     1
  8
0
100
AcDbBlockEnd
  0
BLOCK
  5
216
100
AcDbEntity
 67
     1
  8
0
100
AcDbBlockBegin
  2
*Paper_Space0
 70
     0
 10
0.000000
 20
0.000000
 30
0.000000
  3
*Paper_Space0
  1

  0
ENDBLK
  5
217
100
AcDbEntity
 67
     1
  8
0
100
AcDbBlockEnd
  0
BLOCK
  5
218
100
AcDbEntity
  8
L
100
AcDbBlockBegin
  2
B
 70
    66
 10
0.000000
 20
0.000000
 30
0.000000
  0
LINE
  5
219
100
AcDbEntity
  8
L
  6
CONTINUOUS
 62
     2
100
AcDbLine
 10
67.500005
 20
16.999995
 11
50.362175
 21
17.448765
  0
ARC
  5
21A
100
AcDbEntity
  8
L
  6
CONTINUOUS
 62
     2
100
AcDbCircle
 10
50.414531
 20
19.448082
 40
2.000001
100
AcDbArc
 50
200.000046
 51
268.499947
  0
LINE
  5
21B
100
AcDbEntity
  8
L
  6
CONTINUOUS
 62
     2
100
AcDbLine
 10
28.956050
 20
42.965815
 11
28.403505
 21
21.864490
  0
ARC
  5
21C
100
AcDbEntity
  8
L
  6
CONTINUOUS
 62
     2
100
AcDbCircle
 10
40.000005
 20
44.499999
 40
11.499990
100
AcDbArc
 50
195.457464
 51
27.594975
  0
LINE
  5
21D
100
AcDbEntity
  8
L
  6
CONTINUOUS
 62
     2
100
AcDbLine
 10
46.361895
 20
23.499995
 11
52.000005
 21
23.499995
  0
ARC
  5
21E
100
AcDbEntity
  8
L
  6
CONTINUOUS
 62
     2
100
AcDbCircle
 10
52.000005
 20
25.499999
 40
2.000000
100
AcDbArc
 50
269.999990
 51
359.999885
  0
LINE
  5
21F
100
AcDbEntity
  8
L
  6
CONTINUOUS
 62
     2
100
AcDbLine
 10
54.000005
 20
25.499995
 11
54.000005
 21
49.499995
  0
ARC
  5
220
100
AcDbEntity
  8
L
  6
CONTINUOUS
 62
     2
100
AcDbCircle
 10
52.000005
 20
49.499999
 40
1.999993
100
AcDbArc
 50
359.999885
 51
50.025085
  0
ARC
  5
221
100
AcDbEntity
  8
L
  6
CONTINUOUS
 62
     2
100
AcDbCircle
 10
62.500005
 20
58.999999
 40
2.000004
100
AcDbArc
 50
230.768175
 51
269.999990
  0
LINE
  5
222
100
AcDbEntity
  8
L
  6
CONTINUOUS
 62
     2
100
AcDbLine
 10
-9.999990
 20
24.504535
 11
-9.999990
 21
22.057500
  0
ARC
  5
223
100
AcDbEntity
  8
L
  6
CONTINUOUS
 62
     2
100
AcDbCircle
 10
-11.999995
 20
22.057505
 40
2.000005
100
AcDbArc
 50
265.000188
 51
359.999870
  0
LINE
  5
224
100
AcDbEntity
  8
L
  6
CONTINUOUS
 62
     2
100
AcDbLine
 10
15.000005
 20
24.999995
 11
15.000005
 21
22.494945
  0
ARC
  5
225
100
AcDbEntity
  8
L
  6
CONTINUOUS
 62
     2
100
AcDbCircle
 10
17.000005
 20
22.494951
 40
2.000002
100
AcDbArc
 50
180.000182
 51
274.999943
  0
ARC
  5
226
100
AcDbEntity
  8
L
  6
CONTINUOUS
 62
     2
100
AcDbCircle
 10
2.500005
 20
49.541666
 40
27.541670
100
AcDbArc
 50
279.427339
 51
296.991462
  0
ARC
  5
227
100
AcDbEntity
  8
L
  6
CONTINUOUS
 62
     2
100
AcDbCircle
 10
2.500005
 20
49.541666
 40
27.541673
100
AcDbArc
 50
244.227476
 51
260.572680
  0
ARC
  5
228
100
AcDbEntity
  8
L
  6
CONTINUOUS
 62
     2
100
AcDbCircle
 10
-39.999995
 20
44.499999
 40
11.500012
100
AcDbArc
 50
144.984993
 51
265.011912
  0
ARC
  5
229
100
AcDbEntity
  8
L
  6
CONTINUOUS
 62
     2
100
AcDbCircle
 10
-39.999995
 20
44.499999
 40
11.500004
100
AcDbArc
 50
34.301141
 51
37.353465
  0
LINE
  5
22A
100
AcDbEntity
  8
L
  6
CONTINUOUS
 62
     2
100
AcDbLine
 10
-11.499990
 20
-84.000000
 11
-11.499990
 21
-85.000000
  0
ARC
  5
22B
100
AcDbEntity
  8
L
  6
CONTINUOUS
 62
     2
100
AcDbCircle
 10
-13.499995
 20
-84.000001
 40
2.000001
100
AcDbArc
 50
0.000029
 51
89.999867
  0
LINE
  5
22C
100
AcDbEntity
  8
L
  6
CONTINUOUS
 62
     2
100
AcDbLine
 10
10.500005
 20
-84.000000
 11
10.500005
 21
-85.000000
  0
ARC
  5
22D
100
AcDbEntity
  8
L
  6
CONTINUOUS
 62
     2
100
AcDbCircle
 10
12.500005
 20
-84.000001
 40
2.000001
100
AcDbArc
 50
90.000010
 51
179.999971
  0
LINE
  5
22E
100
AcDbEntity
  8
L
  6
CONTINUOUS
 62
     2
100
AcDbLine
 10
56.765110
 20
0.000000
 11
67.500005
 21
0.000000
  0
ARC
  5
22F
100
AcDbEntity
  8
L
  6
CONTINUOUS
 62
     2
100
AcDbCircle
 10
56.765111
 20
1.999999
 40
2.000002
100
AcDbArc
 50
200.000090
 51
269.999965
  0
LINE
  5
230
100
AcDbEntity
  8
L
  6
CONTINUOUS
 62
     2
100
AcDbLine
 10
65.000010
 20
-35.300010
 11
67.500005
 21
-35.300010
  0
ARC
  5
231
100
AcDbEntity
  8
L
  6
CONTINUOUS
 62
     2
100
AcDbCircle
 10
65.000010
 20
-37.300011
 40
2.000000
100
AcDbArc
 50
90.000009
 51
179.999971
  0
LINE
  5
232
100
AcDbEntity
  8
L
  6
CONTINUOUS
 62
     2
100
AcDbLine
 10
67.500005
 20
-45.300010
 11
65.000005
 21
-45.300010
  0
ARC
  5
233
100
AcDbEntity
  8
L
  6
CONTINUOUS
 62
     2
100
AcDbCircle
 10
65.000006
 20
-47.300011
 40
2.000001
100
AcDbArc
 50
90.000040
 51
179.999971
  0
LINE
  5
234
100
AcDbEntity
  8
L
  6
CONTINUOUS
 62
     2
100
AcDbLine
 10
-64.999990
 20
-45.300010
 11
-67.499990
 21
-45.300010
  0
ARC
  5
235
100
AcDbEntity
  8
L
  6
CONTINUOUS
 62
     2
100
AcDbCircle
 10
-64.999995
 20
-47.300011
 40
2.000005
100
AcDbArc
 50
0.000029
 51
89.999867
  0
LINE
  5
236
100
AcDbEntity
  8
L
  6
CONTINUOUS
 62
     2
100
AcDbLine
 10
-67.499990
 20
9.442555
 11
-64.999990
 21
9.442555
  0
LINE
  5
237
100
AcDbEntity
  8
L
  6
CONTINUOUS
 62
     2
100
AcDbLine
 10
-67.499990
 20
22.557435
 11
-64.999990
 21
22.557435
  0
ARC
  5
238
100
AcDbEntity
  8
L
  6
CONTINUOUS
 62
     2
100
AcDbCircle
 10
-64.999995
 20
24.557439
 40
2.000004
100
AcDbArc
 50
270.000133
 51
336.408619
  0
LINE
  5
239
100
AcDbEntity
  8
L
  6
CONTINUOUS
 62
     2
100
AcDbLine
 10
-62.999990
 20
36.566030
 11
-62.999990
 21
39.999995
  0
LINE
  5
23A
100
AcDbEntity
  8
L
  6
CONTINUOUS
 62
     2
100
AcDbLine
 10
-67.499985
 20
67.715710
 11
-67.499985
 21
36.699995
  0
LINE
  5
23B
100
AcDbEntity
  8
L
  6
CONTINUOUS
 62
     2
100
AcDbLine
 10
-67.499985
 20
23.699995
 11
-67.499990
 21
-85.000000
  0
LINE
  5
23C
100
AcDbEntity
  8
L
  6
CONTINUOUS
 62
     2
100
AcDbLine
 10
-67.499990
 20
-85.000000
 11
67.500005
 21
-85.000000
  0
LINE
  5
23D
100
AcDbEntity
  8
L
  6
CONTINUOUS
 62
     2
100
AcDbLine
 10
67.500005
 20
-85.000000
 11
67.500005
 21
63.715730
  0
ARC
  5
23E
100
AcDbEntity
  8
L
  6
CONTINUOUS
 62
     2
100
AcDbCircle
 10
-64.999995
 20
7.442559
 40
2.000005
100
AcDbArc
 50
359.999885
 51
89.999867
  0
LINE
  5
23F
100
AcDbEntity
  8
L
  6
CONTINUOUS
 62
     2
100
AcDbLine
 10
-13.499990
 20
23.229345
 11
-13.499990
 21
22.013755
  0
ARC
  5
240
100
AcDbEntity
  8
L
  6
CONTINUOUS
 62
     2
100
AcDbCircle
 10
-11.499995
 20
22.013759
 40
2.000002
100
AcDbArc
 50
180.000117
 51
257.791929
  0
ARC
  5
241
100
AcDbEntity
  8
L
  6
CONTINUOUS
 62
     2
100
AcDbCircle
 10
-27.013737
 20
43.902402
 40
2.000010
100
AcDbArc
 50
197.958041
 51
200.590666
  0
LINE
  5
242
100
AcDbEntity
  8
L
  6
CONTINUOUS
 62
     2
100
AcDbLine
 10
-30.499985
 20
51.679530
 11
-30.499990
 21
50.562175
  0
ARC
  5
243
100
AcDbEntity
  8
L
  6
CONTINUOUS
 62
     2
100
AcDbCircle
 10
-28.499995
 20
50.562177
 40
1.999997
100
AcDbArc
 50
180.000052
 51
187.203631
  0
LINE
  5
244
100
AcDbEntity
  8
L
  6
CONTINUOUS
 62
     2
100
AcDbLine
 10
-53.999985
 20
54.243630
 11
-53.999990
 21
50.499995
  0
LINE
  5
245
100
AcDbEntity
  8
L
  6
CONTINUOUS
 62
     2
100
AcDbLine
 10
-67.499990
 20
55.999995
 11
-64.999990
 21
55.999995
  0
LINE
  5
246
100
AcDbEntity
  8
L
  6
CONTINUOUS
 62
     2
100
AcDbLine
 10
-62.999990
 20
57.999995
 11
-62.999985
 21
63.215710
  0
ARC
  5
247
100
AcDbEntity
  8
L
  6
CONTINUOUS
 62
     2
100
AcDbCircle
 10
-64.999995
 20
57.999999
 40
2.000004
100
AcDbArc
 50
270.000133
 51
359.999885
  0
LINE
  5
248
100
AcDbEntity
  8
L
  6
CONTINUOUS
 62
     2
100
AcDbLine
 10
-62.999990
 20
55.999995
 11
-62.999990
 21
57.999995
  0
ARC
  5
249
100
AcDbEntity
  8
L
  6
CONTINUOUS
 62
     2
100
AcDbCircle
 10
-60.999995
 20
55.999999
 40
2.000000
100
AcDbArc
 50
180.000115
 51
240.000161
  0
LINE
  5
24A
100
AcDbEntity
  8
L
  6
CONTINUOUS
 62
     2
100
AcDbLine
 10
-67.499990
 20
50.499995
 11
-54.499990
 21
50.499995
  0
ARC
  5
24B
100
AcDbEntity
  8
L
  6
CONTINUOUS
 62
     2
100
AcDbCircle
 10
-54.499995
 20
48.499999
 40
1.999996
100
AcDbArc
 50
359.999885
 51
89.999867
  0
LINE
  5
24C
100
AcDbEntity
  8
L
  6
CONTINUOUS
 62
     2
100
AcDbLine
 10
-52.499990
 20
48.499995
 11
-52.499990
 21
34.138435
  0
ARC
  5
24D
100
AcDbEntity
  8
L
  6
CONTINUOUS
 62
     2
100
AcDbCircle
 10
-47.499995
 20
34.138439
 40
4.999995
100
AcDbArc
 50
180.000049
 51
250.043365
  0
ARC
  5
24E
100
AcDbEntity
  8
L
  6
CONTINUOUS
 62
     2
100
AcDbCircle
 10
-51.999995
 20
50.999999
 40
1.999995
100
AcDbArc
 50
102.582537
 51
180.000115
  0
ARC
  5
24F
100
AcDbEntity
  8
L
  6
CONTINUOUS
 62
     2
100
AcDbCircle
 10
-64.999995
 20
39.999999
 40
1.999996
100
AcDbArc
 50
359.999885
 51
89.999867
  0
ENDBLK
  5
251
100
AcDbEntity
  8
0
100
AcDbBlockEnd
  0
BLOCK
  5
252
100
AcDbEntity
  8
L
100
AcDbBlockBegin
  2
B-2
 70
    66
 10
0.000000
 20
0.000000
 30
0.000000
  0
LINE
  5
253
100
AcDbEntity
  8
L
  6
CONTINUOUS
 62
     2
100
AcDbLine
 10
-179.399586
 20
86.750013
 11
-172.856266
 21
86.750013
  0
LINE
  5
254
100
AcDbEntity
  8
L
  6
CONTINUOUS
 62
     2
100
AcDbLine
 10
-171.856266
 20
85.750013
 11
-171.856256
 21
-73.749987
  0
ARC
  5
255
100
AcDbEntity
  8
L
  6
CONTINUOUS
 62
     2
100
AcDbCircle
 10
-172.856266
 20
85.750013
 40
1.000000
100
AcDbArc
 50
0.000000
 51
90.000004
  0
LINE
  5
256
100
AcDbEntity
  8
L
  6
CONTINUOUS
 62
     2
100
AcDbLine
 10
-172.856256
 20
-74.749987
 11
-179.399586
 21
-74.749987
  0
ARC
  5
257
100
AcDbEntity
  8
L
  6
CONTINUOUS
 62
     2
100
AcDbCircle
 10
-172.856256
 20
-73.749987
 40
1.000000
100
AcDbArc
 50
270.000004
 51
0.000000
  0
ENDBLK
  5
258
100
AcDbEntity
  8
0
100
AcDbBlockEnd
  0
BLOCK
  5
259
100
AcDbEntity
  8
L
100
AcDbBlockBegin
  2
B-3
 70
    66
 10
0.000000
 20
0.000000
 30
0.000000
  0
LINE
  5
25A
100
AcDbEntity
  8
L
  6
BORDER
 62
     3
100
AcDbLine
 10
-198.499586
 20
-17.499972
 11
-198.499586
 21
-17.499972
  0
LINE
  5
25B
100
AcDbEntity
  8
L
  6
BORDER
 62
     4
100
AcDbLine
 10
-205.899586
 20
55.000013
 11
-213.899581
 21
55.000008
  0
LINE
  5
25C
100
AcDbEntity
  8
L
  6
BORDER
 62
     4
100
AcDbLine
 10
-205.899586
 20
20.000013
 11
-213.899576
 21
20.000013
  0
LINE
  5
25D
100
AcDbEntity
  8
L
  6
CONTINUOUS
 62
     2
100
AcDbLine
 10
-207.899571
 20
-40.299492
 11
-203.899571
 21
-40.299492
  0
LINE
  5
25E
100
AcDbEntity
  8
L
  6
CONTINUOUS
 62
     2
100
AcDbLine
 10
-203.899571
 20
-40.299492
 11
-203.899566
 21
-44.699492
  0
LINE
  5
25F
100
AcDbEntity
  8
L
  6
CONTINUOUS
 62
     2
100
AcDbLine
 10
-203.899566
 20
-44.699492
 11
-207.899571
 21
-44.699492
  0
LINE
  5
260
100
AcDbEntity
  8
L
  6
CONTINUOUS
 62
     2
100
AcDbLine
 10
-207.899571
 20
-16.999997
 11
-209.399576
 21
-16.999997
  0
ARC
  5
261
100
AcDbEntity
  8
L
  6
CONTINUOUS
 62
     2
100
AcDbCircle
 10
-209.399576
 20
-17.499993
 40
0.500000
100
AcDbArc
 50
90.000017
 51
179.999952
  0
LINE
  5
262
100
AcDbEntity
  8
L
  6
CONTINUOUS
 62
     2
100
AcDbLine
 10
-209.899576
 20
-17.499992
 11
-209.899561
 21
-67.499997
  0
LINE
  5
263
100
AcDbEntity
  8
L
  6
CONTINUOUS
 62
     2
100
AcDbLine
 10
-209.399561
 20
-67.999992
 11
-207.899566
 21
-68.000002
  0
ARC
  5
264
100
AcDbEntity
  8
L
  6
CONTINUOUS
 62
     2
100
AcDbCircle
 10
-209.399566
 20
-67.499993
 40
0.499995
100
AcDbArc
 50
180.000477
 51
270.000584
  0
LINE
  5
265
100
AcDbEntity
  8
L
  6
CONTINUOUS
 62
     2
100
AcDbLine
 10
-203.899566
 20
-40.299492
 11
-203.899556
 21
-44.699497
  0
LINE
  5
266
100
AcDbEntity
  8
L
  6
CONTINUOUS
 62
     2
100
AcDbLine
 10
-208.890066
 20
62.000008
 11
-210.899601
 21
62.000008
  0
LINE
  5
267
100
AcDbEntity
  8
L
  6
CONTINUOUS
 62
     2
100
AcDbLine
 10
-210.899601
 20
62.000008
 11
-210.899591
 21
48.000003
  0
LINE
  5
268
100
AcDbEntity
  8
L
  6
CONTINUOUS
 62
     2
100
AcDbLine
 10
-210.899591
 20
48.000003
 11
-208.899586
 21
48.000008
  0
LINE
  5
269
100
AcDbEntity
  8
L
  6
CONTINUOUS
 62
     2
100
AcDbLine
 10
-208.899581
 20
27.000013
 11
-210.899586
 21
27.000008
  0
LINE
  5
26A
100
AcDbEntity
  8
L
  6
CONTINUOUS
 62
     2
100
AcDbLine
 10
-210.899586
 20
27.000008
 11
-210.899586
 21
13.000013
  0
LINE
  5
26B
100
AcDbEntity
  8
L
  6
CONTINUOUS
 62
     2
100
AcDbLine
 10
-210.899586
 20
13.000013
 11
-208.899576
 21
13.000013
  0
LINE
  5
26C
100
AcDbEntity
  8
L
  6
CONTINUOUS
 62
     2
100
AcDbLine
 10
-207.899571
 20
-16.999997
 11
-207.899566
 21
-40.299492
  0
LINE
  5
26D
100
AcDbEntity
  8
L
  6
CONTINUOUS
 62
     2
100
AcDbLine
 10
-207.899566
 20
-44.699497
 11
-207.899571
 21
-68.000002
  0
ENDBLK
  5
26E
100
AcDbEntity
  8
0
100
AcDbBlockEnd
  0
BLOCK
  5
26F
100
AcDbEntity
  8
L
100
AcDbBlockBegin
  2
B-4
 70
    66
 10
0.000000
 20
0.000000
 30
0.000000
  0
LINE
  5
270
100
AcDbEntity
  8
L
  6
CONTINUOUS
 62
     2
100
AcDbLine
 10
-65.500005
 20
-86.250000
 11
-65.500005
 21
-86.750000
  0
LINE
  5
271
100
AcDbEntity
  8
L
  6
CONTINUOUS
 62
     2
100
AcDbLine
 10
-65.500005
 20
-86.750000
 11
-54.500005
 21
-86.750000
  0
LINE
  5
272
100
AcDbEntity
  8
L
  6
CONTINUOUS
 62
     2
100
AcDbLine
 10
-54.500005
 20
-86.750000
 11
-54.500005
 21
-86.250000
  0
LINE
  5
273
100
AcDbEntity
  8
L
  6
CONTINUOUS
 62
     2
100
AcDbLine
 10
-54.500005
 20
-86.250000
 11
-54.750005
 21
-86.250000
  0
LINE
  5
274
100
AcDbEntity
  8
L
  6
CONTINUOUS
 62
     2
100
AcDbLine
 10
54.499995
 20
-86.250000
 11
54.499995
 21
-86.750000
  0
LINE
  5
275
100
AcDbEntity
  8
L
  6
CONTINUOUS
 62
     2
100
AcDbLine
 10
54.499995
 20
-86.750000
 11
65.499995
 21
-86.750000
  0
LINE
  5
276
100
AcDbEntity
  8
L
  6
CONTINUOUS
 62
     2
100
AcDbLine
 10
65.499995
 20
-86.750000
 11
65.499995
 21
-86.250000
  0
LINE
  5
277
100
AcDbEntity
  8
L
  6
CONTINUOUS
 62
     2
100
AcDbLine
 10
65.499995
 20
-86.250000
 11
65.249995
 21
-86.250000
  0
ENDBLK
  5
278
100
AcDbEntity
  8
0
100
AcDbBlockEnd
  0
BLOCK
  5
279
100
AcDbEntity
  8
L
100
AcDbBlockBegin
  2
B-5
 70
    66
 10
0.000000
 20
0.000000
 30
0.000000
  0
LINE
  5
27A
100
AcDbEntity
  8
L
  6
CONTINUOUS
 62
     2
100
AcDbLine
 10
-71.999995
 20
-96.467795
 11
-71.999995
 21
-91.532205
  0
LINE
  5
27B
100
AcDbEntity
  8
L
  6
CONTINUOUS
 62
     2
100
AcDbLine
 10
-71.999995
 20
-91.532205
 11
-67.999995
 21
-89.300000
  0
LINE
  5
27C
100
AcDbEntity
  8
L
  6
CONTINUOUS
 62
     2
100
AcDbLine
 10
-67.999995
 20
-89.300000
 11
-65.000005
 21
-90.974150
  0
LINE
  5
27D
100
AcDbEntity
  8
L
  6
CONTINUOUS
 62
     2
100
AcDbLine
 10
-63.999995
 20
-92.750000
 11
-63.999995
 21
-96.467795
  0
LINE
  5
27E
100
AcDbEntity
  8
L
  6
CONTINUOUS
 62
     2
100
AcDbLine
 10
-63.999995
 20
-96.467795
 11
-67.999995
 21
-98.700000
  0
LINE
  5
27F
100
AcDbEntity
  8
L
  6
CONTINUOUS
 62
     2
100
AcDbLine
 10
-67.999995
 20
-98.700000
 11
-71.999995
 21
-96.467795
  0
ARC
  5
280
100
AcDbEntity
  8
L
  6
CONTINUOUS
 62
     2
100
AcDbCircle
 10
-67.999995
 20
-94.000000
 40
10.500000
100
AcDbArc
 50
115.208578
 51
6.837141
  0
ARC
  5
281
100
AcDbEntity
  8
L
  6
CONTINUOUS
 62
     2
100
AcDbCircle
 10
-67.999995
 20
-94.000000
 40
4.700001
100
AcDbArc
 50
50.335155
 51
15.423847
  0
ENDBLK
  5
282
100
AcDbEntity
  8
0
100
AcDbBlockEnd
  0
BLOCK
  5
283
100
AcDbEntity
  8
L
100
AcDbBlockBegin
  2
B-6
 70
    66
 10
0.000000
 20
0.000000
 30
0.000000
  0
CIRCLE
  5
284
100
AcDbEntity
  8
L
  6
CONTINUOUS
 62
     2
100
AcDbCircle
 10
0.000000
 20
152.999995
 40
32.500000
  0
CIRCLE
  5
285
100
AcDbEntity
  8
L
  6
CONTINUOUS
 62
     2
100
AcDbCircle
 10
0.000000
 20
152.999995
 40
29.500000
  0
ENDBLK
  5
286
100
AcDbEntity
  8
0
100
AcDbBlockEnd
  0
BLOCK
  5
287
100
AcDbEntity
  8
L
100
AcDbBlockBegin
  2
B-7
 70
    66
 10
0.000000
 20
0.000000
 30
0.000000
  0
LINE
  5
288
100
AcDbEntity
  8
L
  6
CONTINUOUS
 62
     2
100
AcDbLine
 10
-68.750000
 20
-44.787470
 11
-68.750000
 21
-84.499985
  0
LINE
  5
289
100
AcDbEntity
  8
L
  6
CONTINUOUS
 62
     2
100
AcDbLine
 10
-68.750000
 20
-84.499985
 11
-76.750000
 21
-84.499985
  0
LINE
  5
28A
100
AcDbEntity
  8
L
  6
CONTINUOUS
 62
     2
100
AcDbLine
 10
-88.750000
 20
-66.999985
 11
-88.750000
 21
-55.870410
  0
LINE
  5
28B
100
AcDbEntity
  8
L
  6
CONTINUOUS
 62
     2
100
AcDbLine
 10
-76.750000
 20
-67.999985
 11
-76.750000
 21
-84.499985
  0
ARC
  5
28C
100
AcDbEntity
  8
L
  6
CONTINUOUS
 62
     2
100
AcDbCircle
 10
-77.750002
 20
-67.999982
 40
1.000002
100
AcDbArc
 50
359.999846
 51
89.999867
  0
LINE
  5
28D
100
AcDbEntity
  8
L
  6
CONTINUOUS
 62
     2
100
AcDbLine
 10
-70.750000
 20
-49.910305
 11
-70.750000
 21
-65.999985
  0
ARC
  5
28E
100
AcDbEntity
  8
L
  6
CONTINUOUS
 62
     2
100
AcDbCircle
 10
-71.750002
 20
-65.999982
 40
1.000003
100
AcDbArc
 50
270.000133
 51
359.999846
  0
ARC
  5
28F
100
AcDbEntity
  8
L
  6
CONTINUOUS
 62
     2
100
AcDbCircle
 10
-72.250002
 20
-49.910302
 40
1.500000
100
AcDbArc
 50
359.999897
 51
70.528680
  0
LINE
  5
290
100
AcDbEntity
  8
L
  6
CONTINUOUS
 62
     2
100
AcDbLine
 10
-68.750000
 20
-48.410305
 11
-71.750000
 21
-48.410305
  0
LINE
  5
291
100
AcDbEntity
  8
L
  6
CONTINUOUS
 62
     2
100
AcDbLine
 10
-71.750000
 20
-66.999985
 11
-77.750000
 21
-66.999985
  0
LINE
  5
292
100
AcDbEntity
  8
L
  6
CONTINUOUS
 62
     2
100
AcDbLine
 10
-76.750000
 20
-81.999985
 11
-77.750000
 21
-81.999985
  0
ARC
  5
293
100
AcDbEntity
  8
L
  6
CONTINUOUS
 62
     2
100
AcDbCircle
 10
-77.750002
 20
-78.999982
 40
3.000003
100
AcDbArc
 50
236.443191
 51
270.000044
  0
ARC
  5
294
100
AcDbEntity
  8
L
  6
CONTINUOUS
 62
     2
100
AcDbCircle
 10
-79.250002
 20
-66.999982
 40
9.499998
100
AcDbArc
 50
180.000016
 51
245.098947
  0
LINE
  5
295
100
AcDbEntity
  8
L
  6
CONTINUOUS
 62
     2
100
AcDbLine
 10
-74.950000
 20
-56.672985
 11
-74.950000
 21
-60.224835
  0
LINE
  5
296
100
AcDbEntity
  8
L
  6
CONTINUOUS
 62
     2
100
AcDbLine
 10
-86.550000
 20
-61.224835
 11
-86.550000
 21
-56.672995
  0
ARC
  5
297
100
AcDbEntity
  8
L
  6
CONTINUOUS
 62
     2
100
AcDbCircle
 10
-80.792243
 20
-61.224832
 40
5.757762
100
AcDbArc
 50
180.000027
 51
225.246033
  0
ARC
  5
298
100
AcDbEntity
  8
L
  6
CONTINUOUS
 62
     2
100
AcDbCircle
 10
-80.750002
 20
-61.182228
 40
5.817757
100
AcDbArc
 50
225.246033
 51
270.000023
  0
ARC
  5
299
100
AcDbEntity
  8
L
  6
CONTINUOUS
 62
     2
100
AcDbCircle
 10
-80.750002
 20
-61.182228
 40
5.817760
100
AcDbArc
 50
270.000023
 51
314.754000
  0
ARC
  5
29A
100
AcDbEntity
  8
L
  6
CONTINUOUS
 62
     2
100
AcDbCircle
 10
-80.707762
 20
-61.224832
 40
5.757762
100
AcDbArc
 50
314.754000
 51
359.999973
  0
ARC
  5
29B
100
AcDbEntity
  8
L
  6
CONTINUOUS
 62
     2
100
AcDbCircle
 10
-73.950002
 20
-60.224832
 40
1.000003
100
AcDbArc
 50
180.000154
 51
270.000133
  0
ENDBLK
  5
29C
100
AcDbEntity
  8
0
100
AcDbBlockEnd
  0
BLOCK
  5
29D
100
AcDbEntity
  8
L
100
AcDbBlockBegin
  2
B-8
 70
    66
 10
0.000000
 20
0.000000
 30
0.000000
  0
CIRCLE
  5
29E
100
AcDbEntity
  8
L
  6
CONTINUOUS
 62
     2
100
AcDbCircle
 10
41.000011
 20
18.999997
 40
5.000000
  0
LINE
  5
29F
100
AcDbEntity
  8
L
  6
CONTINUOUS
 62
     2
100
AcDbLine
 10
42.443386
 20
21.499997
 11
43.886761
 21
18.999997
  0
LINE
  5
2A0
100
AcDbEntity
  8
L
  6
CONTINUOUS
 62
     2
100
AcDbLine
 10
39.556636
 20
21.499997
 11
42.443386
 21
21.499997
  0
LINE
  5
2A1
100
AcDbEntity
  8
L
  6
CONTINUOUS
 62
     2
100
AcDbLine
 10
38.113261
 20
18.999997
 11
39.556636
 21
21.499997
  0
LINE
  5
2A2
100
AcDbEntity
  8
L
  6
CONTINUOUS
 62
     2
100
AcDbLine
 10
39.556636
 20
16.499997
 11
38.113261
 21
18.999997
  0
LINE
  5
2A3
100
AcDbEntity
  8
L
  6
CONTINUOUS
 62
     2
100
AcDbLine
 10
42.443386
 20
16.499997
 11
39.556636
 21
16.499997
  0
LINE
  5
2A4
100
AcDbEntity
  8
L
  6
CONTINUOUS
 62
     2
100
AcDbLine
 10
43.886761
 20
18.999997
 11
42.443386
 21
16.499997
  0
CIRCLE
  5
2A5
100
AcDbEntity
  8
L
  6
CONTINUOUS
 62
     2
100
AcDbCircle
 10
43.000003
 20
-72.000010
 40
4.999998
  0
LINE
  5
2A6
100
AcDbEntity
  8
L
  6
CONTINUOUS
 62
     2
100
AcDbLine
 10
44.443381
 20
-69.500008
 11
45.886756
 21
-72.000008
  0
LINE
  5
2A7
100
AcDbEntity
  8
L
  6
CONTINUOUS
 62
     2
100
AcDbLine
 10
45.886756
 20
-72.000008
 11
44.443381
 21
-74.500008
  0
LINE
  5
2A8
100
AcDbEntity
  8
L
  6
CONTINUOUS
 62
     2
100
AcDbLine
 10
44.443381
 20
-74.500008
 11
41.556631
 21
-74.500008
  0
LINE
  5
2A9
100
AcDbEntity
  8
L
  6
CONTINUOUS
 62
     2
100
AcDbLine
 10
41.556631
 20
-74.500008
 11
40.113256
 21
-72.000008
  0
LINE
  5
2AA
100
AcDbEntity
  8
L
  6
CONTINUOUS
 62
     2
100
AcDbLine
 10
40.113256
 20
-72.000008
 11
41.556631
 21
-69.500008
  0
LINE
  5
2AB
100
AcDbEntity
  8
L
  6
CONTINUOUS
 62
     2
100
AcDbLine
 10
41.556631
 20
-69.500008
 11
44.443381
 21
-69.500008
  0
CIRCLE
  5
2AC
100
AcDbEntity
  8
L
  6
CONTINUOUS
 62
     2
100
AcDbCircle
 10
-42.999993
 20
-72.000006
 40
4.999996
  0
LINE
  5
2AD
100
AcDbEntity
  8
L
  6
CONTINUOUS
 62
     2
100
AcDbLine
 10
-41.556614
 20
-69.500003
 11
-40.113239
 21
-72.000003
  0
LINE
  5
2AE
100
AcDbEntity
  8
L
  6
CONTINUOUS
 62
     2
100
AcDbLine
 10
-40.113239
 20
-72.000003
 11
-41.556614
 21
-74.500003
  0
LINE
  5
2AF
100
AcDbEntity
  8
L
  6
CONTINUOUS
 62
     2
100
AcDbLine
 10
-41.556614
 20
-74.500003
 11
-44.443364
 21
-74.500003
  0
LINE
  5
2B0
100
AcDbEntity
  8
L
  6
CONTINUOUS
 62
     2
100
AcDbLine
 10
-44.443364
 20
-74.500003
 11
-45.886739
 21
-72.000003
  0
LINE
  5
2B1
100
AcDbEntity
  8
L
  6
CONTINUOUS
 62
     2
100
AcDbLine
 10
-45.886739
 20
-72.000003
 11
-44.443364
 21
-69.500003
  0
LINE
  5
2B2
100
AcDbEntity
  8
L
  6
CONTINUOUS
 62
     2
100
AcDbLine
 10
-44.443364
 20
-69.500003
 11
-41.556614
 21
-69.500003
  0
CIRCLE
  5
2B3
100
AcDbEntity
  8
L
  6
CONTINUOUS
 62
     2
100
AcDbCircle
 10
-40.999989
 20
18.999997
 40
5.000000
  0
LINE
  5
2B4
100
AcDbEntity
  8
L
  6
CONTINUOUS
 62
     2
100
AcDbLine
 10
-39.556614
 20
21.499997
 11
-38.113239
 21
18.999997
  0
LINE
  5
2B5
100
AcDbEntity
  8
L
  6
CONTINUOUS
 62
     2
100
AcDbLine
 10
-38.113239
 20
18.999997
 11
-39.556614
 21
16.499997
  0
LINE
  5
2B6
100
AcDbEntity
  8
L
  6
CONTINUOUS
 62
     2
100
AcDbLine
 10
-39.556614
 20
16.499997
 11
-42.443364
 21
16.499997
  0
LINE
  5
2B7
100
AcDbEntity
  8
L
  6
CONTINUOUS
 62
     2
100
AcDbLine
 10
-42.443364
 20
16.499997
 11
-43.886739
 21
18.999997
  0
LINE
  5
2B8
100
AcDbEntity
  8
L
  6
CONTINUOUS
 62
     2
100
AcDbLine
 10
-43.886739
 20
18.999997
 11
-42.443364
 21
21.499997
  0
LINE
  5
2B9
100
AcDbEntity
  8
L
  6
CONTINUOUS
 62
     2
100
AcDbLine
 10
-42.443364
 20
21.499997
 11
-39.556614
 21
21.499997
  0
CIRCLE
  5
2BA
100
AcDbEntity
  8
L
  6
CONTINUOUS
 62
     2
100
AcDbCircle
 10
-40.999989
 20
18.999997
 40
5.500000
  0
CIRCLE
  5
2BB
100
AcDbEntity
  8
L
  6
CONTINUOUS
 62
     2
100
AcDbCircle
 10
-42.999989
 20
-72.000003
 40
5.500000
  0
CIRCLE
  5
2BC
100
AcDbEntity
  8
L
  6
CONTINUOUS
 62
     2
100
AcDbCircle
 10
43.000006
 20
-72.000008
 40
5.500000
  0
CIRCLE
  5
2BD
100
AcDbEntity
  8
L
  6
CONTINUOUS
 62
     2
100
AcDbCircle
 10
41.000011
 20
18.999997
 40
5.500000
  0
LINE
  5
2BE
100
AcDbEntity
  8
L
  6
CONTINUOUS
 62
     2
100
AcDbLine
 10
-62.999989
 20
-50.000003
 11
-62.999989
 21
-42.783318
  0
LINE
  5
2BF
100
AcDbEntity
  8
L
  6
CONTINUOUS
 62
     2
100
AcDbLine
 10
-62.999989
 20
-27.816688
 11
-62.999989
 21
20.999997
  0
LINE
  5
2C0
100
AcDbEntity
  8
L
  6
CONTINUOUS
 62
     2
100
AcDbLine
 10
-52.999989
 20
30.499997
 11
-53.499989
 21
30.499997
  0
ARC
  5
2C1
100
AcDbEntity
  8
L
  6
CONTINUOUS
 62
     2
100
AcDbCircle
 10
-53.499989
 20
20.999997
 40
9.500000
100
AcDbArc
 50
90.000000
 51
180.000000
  0
LINE
  5
2C2
100
AcDbEntity
  8
L
  6
CONTINUOUS
 62
     2
100
AcDbLine
 10
-48.999989
 20
18.999997
 11
-48.999989
 21
26.702517
  0
ARC
  5
2C3
100
AcDbEntity
  8
L
  6
CONTINUOUS
 62
     2
100
AcDbCircle
 10
-59.499989
 20
-35.300003
 40
7.499999
100
AcDbArc
 50
123.748981
 51
236.251019
  0
ARC
  5
2C4
100
AcDbEntity
  8
L
  6
CONTINUOUS
 62
     2
100
AcDbCircle
 10
-64.499989
 20
-42.783317
 40
1.500000
100
AcDbArc
 50
359.999991
 51
56.250972
  0
LINE
  5
2C5
100
AcDbEntity
  8
L
  6
BORDER
 62
     4
100
AcDbLine
 10
-40.999989
 20
11.999997
 11
-40.999989
 21
25.999997
  0
LINE
  5
2C6
100
AcDbEntity
  8
L
  6
BORDER
 62
     4
100
AcDbLine
 10
-33.999989
 20
18.999997
 11
-47.999989
 21
18.999997
  0
LINE
  5
2C7
100
AcDbEntity
  8
L
  6
CONTINUOUS
 62
     2
100
AcDbLine
 10
-53.499989
 20
30.499997
 11
-52.797469
 21
30.499997
  0
LINE
  5
2C8
100
AcDbEntity
  8
L
  6
BORDER
 62
     4
100
AcDbLine
 10
-42.999989
 20
-79.000003
 11
-42.999989
 21
-65.000003
  0
LINE
  5
2C9
100
AcDbEntity
  8
L
  6
BORDER
 62
     4
100
AcDbLine
 10
-35.999989
 20
-72.000003
 11
-49.999989
 21
-72.000003
  0
LINE
  5
2CA
100
AcDbEntity
  8
L
  6
BORDER
 62
     4
100
AcDbLine
 10
43.000006
 20
-79.000008
 11
43.000006
 21
-65.000008
  0
LINE
  5
2CB
100
AcDbEntity
  8
L
  6
BORDER
 62
     4
100
AcDbLine
 10
50.000006
 20
-72.000008
 11
36.000006
 21
-72.000008
  0
LINE
  5
2CC
100
AcDbEntity
  8
L
  6
CONTINUOUS
 62
     2
100
AcDbLine
 10
-30.999989
 20
-82.000003
 11
31.000011
 21
-82.000003
  0
ARC
  5
2CD
100
AcDbEntity
  8
L
  6
CONTINUOUS
 62
     2
100
AcDbCircle
 10
-30.999993
 20
-50.000006
 40
31.999996
100
AcDbArc
 50
179.999993
 51
270.000007
  0
LINE
  5
2CE
100
AcDbEntity
  8
L
  6
CONTINUOUS
 62
     2
100
AcDbLine
 10
-62.999989
 20
-50.000003
 11
-62.999989
 21
-42.783318
  0
LINE
  5
2CF
100
AcDbEntity
  8
L
  6
CONTINUOUS
 62
     2
100
AcDbLine
 10
63.000021
 20
-24.504408
 11
63.000011
 21
-50.000003
  0
ARC
  5
2D0
100
AcDbEntity
  8
L
  6
CONTINUOUS
 62
     2
100
AcDbCircle
 10
31.000007
 20
-50.000006
 40
32.000004
100
AcDbArc
 50
270.000007
 51
0.000007
  0
ARC
  5
2D1
100
AcDbEntity
  8
L
  6
CONTINUOUS
 62
     2
100
AcDbCircle
 10
-42.999993
 20
-72.000006
 40
7.999999
100
AcDbArc
 50
343.398471
 51
130.691745
  0
ARC
  5
2D2
100
AcDbEntity
  8
L
  6
CONTINUOUS
 62
     2
100
AcDbCircle
 10
43.000007
 20
-72.000006
 40
7.999997
100
AcDbArc
 50
49.308236
 51
196.601535
  0
ARC
  5
2D3
100
AcDbEntity
  8
L
  6
CONTINUOUS
 62
     2
100
AcDbCircle
 10
-29.583585
 20
-76.000006
 40
6.000001
100
AcDbArc
 50
163.398423
 51
270.000058
  0
ARC
  5
2D4
100
AcDbEntity
  8
L
  6
CONTINUOUS
 62
     2
100
AcDbCircle
 10
29.583599
 20
-76.000006
 40
6.000003
100
AcDbArc
 50
270.000017
 51
16.601569
  0
ARC
  5
2D5
100
AcDbEntity
  8
L
  6
CONTINUOUS
 62
     2
100
AcDbCircle
 10
-30.999993
 20
-50.000006
 40
29.999992
100
AcDbArc
 50
184.552052
 51
227.456220
  0
ARC
  5
2D6
100
AcDbEntity
  8
L
  6
CONTINUOUS
 62
     2
100
AcDbCircle
 10
-51.960746
 20
-72.839596
 40
1.000008
100
AcDbArc
 50
227.456066
 51
47.456360
  0
ARC
  5
2D7
100
AcDbEntity
  8
L
  6
CONTINUOUS
 62
     2
100
AcDbCircle
 10
-52.127846
 20
-61.384814
 40
5.999999
100
AcDbArc
 50
208.318113
 51
310.691798
  0
ARC
  5
2D8
100
AcDbEntity
  8
L
  6
CONTINUOUS
 62
     2
100
AcDbCircle
 10
51.960760
 20
-72.839596
 40
0.999999
100
AcDbArc
 50
132.543504
 51
312.544053
  0
ARC
  5
2D9
100
AcDbEntity
  8
L
  6
CONTINUOUS
 62
     2
100
AcDbCircle
 10
31.000007
 20
-50.000006
 40
30.000001
100
AcDbArc
 50
312.543785
 51
355.447950
  0
ARC
  5
2DA
100
AcDbEntity
  8
L
  6
CONTINUOUS
 62
     2
100
AcDbCircle
 10
52.127859
 20
-61.384814
 40
6.000001
100
AcDbArc
 50
229.308227
 51
331.681900
  0
LINE
  5
2DB
100
AcDbEntity
  8
L
  6
BORDER
 62
     4
100
AcDbLine
 10
41.000011
 20
11.999997
 11
41.000011
 21
26.999997
  0
LINE
  5
2DC
100
AcDbEntity
  8
L
  6
BORDER
 62
     4
100
AcDbLine
 10
48.000011
 20
18.999997
 11
34.000011
 21
18.999997
  0
LINE
  5
2DD
100
AcDbEntity
  8
L
  6
CONTINUOUS
 62
     2
100
AcDbLine
 10
0.000011
 20
18.999997
 11
-26.952919
 21
21.358077
  0
ARC
  5
2DE
100
AcDbEntity
  8
L
  6
CONTINUOUS
 62
     2
100
AcDbCircle
 10
-27.475856
 20
15.380905
 40
5.999996
100
AcDbArc
 50
84.999979
 51
165.018547
  0
LINE
  5
2DF
100
AcDbEntity
  8
L
  6
CONTINUOUS
 62
     2
100
AcDbLine
 10
-51.501349
 20
30.271962
 11
-27.137999
 21
21.425282
  0
LINE
  5
2E0
100
AcDbEntity
  8
L
  6
CONTINUOUS
 62
     2
100
AcDbLine
 10
-52.353889
 20
8.272047
 11
-61.793844
 21
-17.664013
  0
ARC
  5
2E1
100
AcDbEntity
  8
L
  6
CONTINUOUS
 62
     2
100
AcDbCircle
 10
-42.999989
 20
-24.504417
 40
20.000000
100
AcDbArc
 50
159.999999
 51
180.000002
  0
ARC
  5
2E2
100
AcDbEntity
  8
L
  6
CONTINUOUS
 62
     2
100
AcDbCircle
 10
-46.715733
 20
6.219924
 40
5.999999
100
AcDbArc
 50
65.903958
 51
159.999980
  0
ARC
  5
2E3
100
AcDbEntity
  8
L
  6
CONTINUOUS
 62
     2
100
AcDbCircle
 10
-40.999989
 20
18.999997
 40
7.999994
100
AcDbArc
 50
180.000000
 51
345.018541
  0
LINE
  5
2E4
100
AcDbEntity
  8
L
  6
CONTINUOUS
 62
     2
100
AcDbLine
 10
38.605876
 20
25.577847
 11
27.216496
 21
21.432452
  0
ARC
  5
2E5
100
AcDbEntity
  8
L
  6
CONTINUOUS
 62
     2
100
AcDbCircle
 10
-52.797467
 20
26.702520
 40
3.797478
100
AcDbArc
 50
359.999964
 51
90.000036
  0
LINE
  5
2E6
100
AcDbEntity
  8
L
  6
CONTINUOUS
 62
     2
100
AcDbLine
 10
-62.326169
 20
-50.751973
 11
-61.574449
 21
-51.248033
  0
ARC
  5
2E7
100
AcDbEntity
  8
L
  6
CONTINUOUS
 62
     2
100
AcDbCircle
 10
-61.499989
 20
-49.500003
 40
1.500000
100
AcDbArc
 50
179.999809
 51
236.579021
  0
ARC
  5
2E8
100
AcDbEntity
  8
L
  6
CONTINUOUS
 62
     2
100
AcDbCircle
 10
-62.400630
 20
-52.500003
 40
1.500003
100
AcDbArc
 50
4.552154
 51
56.578984
  0
LINE
  5
2E9
100
AcDbEntity
  8
L
  6
CONTINUOUS
 62
     2
100
AcDbLine
 10
0.000016
 20
18.999997
 11
26.952946
 21
21.358082
  0
ARC
  5
2EA
100
AcDbEntity
  8
L
  6
CONTINUOUS
 62
     2
100
AcDbCircle
 10
27.475878
 20
15.380905
 40
6.000002
100
AcDbArc
 50
14.981487
 51
94.999969
  0
LINE
  5
2EB
100
AcDbEntity
  8
L
  6
CONTINUOUS
 62
     2
100
AcDbLine
 10
47.577871
 20
21.394147
 11
61.793871
 21
-17.664008
  0
ARC
  5
2EC
100
AcDbEntity
  8
L
  6
CONTINUOUS
 62
     2
100
AcDbCircle
 10
43.000011
 20
-24.504417
 40
20.000005
100
AcDbArc
 50
0.000012
 51
20.000009
  0
ARC
  5
2ED
100
AcDbEntity
  8
L
  6
CONTINUOUS
 62
     2
100
AcDbCircle
 10
46.715755
 20
6.219924
 40
6.000008
100
AcDbArc
 50
20.000049
 51
114.095979
  0
ARC
  5
2EE
100
AcDbEntity
  8
L
  6
CONTINUOUS
 62
     2
100
AcDbCircle
 10
41.000011
 20
18.999997
 40
7.999987
100
AcDbArc
 50
194.981434
 51
294.096139
  0
ARC
  5
2EF
100
AcDbEntity
  8
L
  6
CONTINUOUS
 62
     2
100
AcDbCircle
 10
41.000011
 20
18.999997
 40
7.000020
100
AcDbArc
 50
20.000061
 51
109.999897
  0
LINE
  5
2F0
100
AcDbEntity
  8
L
  6
CONTINUOUS
 62
     2
100
AcDbLine
 10
62.326181
 20
-50.751973
 11
61.574461
 21
-51.248033
  0
ARC
  5
2F1
100
AcDbEntity
  8
L
  6
CONTINUOUS
 62
     2
100
AcDbCircle
 10
61.500001
 20
-49.500003
 40
1.500000
100
AcDbArc
 50
303.420979
 51
0.000191
  0
ARC
  5
2F2
100
AcDbEntity
  8
L
  6
CONTINUOUS
 62
     2
100
AcDbCircle
 10
62.400642
 20
-52.500003
 40
1.500003
100
AcDbArc
 50
123.421016
 51
175.447846
  0
ARC
  5
2F3
100
AcDbEntity
  8
L
  6
CONTINUOUS
 62
     2
100
AcDbCircle
 10
-64.499989
 20
-27.816688
 40
1.500001
100
AcDbArc
 50
303.749028
 51
0.000009
  0
ARC
  5
2F4
100
AcDbEntity
  8
L
  6
CONTINUOUS
 62
     2
100
AcDbCircle
 10
-26.626033
 20
22.835208
 40
1.500000
100
AcDbArc
 50
250.043241
 51
265.000082
  0
ARC
  5
2F5
100
AcDbEntity
  8
L
  6
CONTINUOUS
 62
     2
100
AcDbCircle
 10
26.703466
 20
22.841989
 40
1.500000
100
AcDbArc
 50
275.000050
 51
290.000015
  0
LINE
  5
2F6
100
AcDbEntity
  8
L
  6
CONTINUOUS
 62
     4
100
AcDbLine
 10
-24.080949
 20
-50.500008
 11
-15.509524
 21
-50.500008
  0
LINE
  5
2F7
100
AcDbEntity
  8
L
  6
CONTINUOUS
 62
     4
100
AcDbLine
 10
-13.795224
 20
-50.500008
 11
-12.509504
 21
-50.500008
  0
LINE
  5
2F8
100
AcDbEntity
  8
L
  6
CONTINUOUS
 62
     4
100
AcDbLine
 10
-10.795229
 20
-50.500008
 11
-3.080934
 21
-50.500008
  0
LINE
  5
2F9
100
AcDbEntity
  8
L
  6
CONTINUOUS
 62
     4
100
AcDbLine
 10
-1.366649
 20
-50.500008
 11
6.561911
 21
-50.500008
  0
LINE
  5
2FA
100
AcDbEntity
  8
L
  6
CONTINUOUS
 62
     4
100
AcDbLine
 10
8.490491
 20
-50.500008
 11
15.776191
 21
-50.500008
  0
LINE
  5
2FB
100
AcDbEntity
  8
L
  6
CONTINUOUS
 62
     4
100
AcDbLine
 10
17.490491
 20
-50.500008
 11
24.347646
 21
-50.500008
  0
LINE
  5
2FC
100
AcDbEntity
  8
L
  6
CONTINUOUS
 62
     4
100
AcDbLine
 10
-15.509524
 20
-50.500008
 11
-15.509524
 21
-44.500013
  0
LINE
  5
2FD
100
AcDbEntity
  8
L
  6
CONTINUOUS
 62
     4
100
AcDbLine
 10
18.776206
 20
-44.500013
 11
17.490491
 21
-44.500008
  0
LINE
  5
2FE
100
AcDbEntity
  8
L
  6
CONTINUOUS
 62
     4
100
AcDbLine
 10
15.776191
 20
-44.500008
 11
8.490491
 21
-44.500008
  0
LINE
  5
2FF
100
AcDbEntity
  8
L
  6
CONTINUOUS
 62
     4
100
AcDbLine
 10
6.561911
 20
-44.500008
 11
-1.366649
 21
-44.500008
  0
LINE
  5
300
100
AcDbEntity
  8
L
  6
CONTINUOUS
 62
     4
100
AcDbLine
 10
-3.080934
 20
-44.500008
 11
-10.795229
 21
-44.500008
  0
LINE
  5
301
100
AcDbEntity
  8
L
  6
CONTINUOUS
 62
     4
100
AcDbLine
 10
-12.509504
 20
-44.500008
 11
-13.795224
 21
-44.500008
  0
LINE
  5
302
100
AcDbEntity
  8
L
  6
CONTINUOUS
 62
     4
100
AcDbLine
 10
-15.509524
 20
-44.500008
 11
-24.080949
 21
-44.500013
  0
LINE
  5
303
100
AcDbEntity
  8
L
  6
CONTINUOUS
 62
     4
100
AcDbLine
 10
-24.080949
 20
-44.500013
 11
-24.080949
 21
-50.500008
  0
LINE
  5
304
100
AcDbEntity
  8
L
  6
CONTINUOUS
 62
     4
100
AcDbLine
 10
-22.795244
 20
-45.785733
 11
-22.795244
 21
-49.214303
  0
LINE
  5
305
100
AcDbEntity
  8
L
  6
CONTINUOUS
 62
     4
100
AcDbLine
 10
-22.795244
 20
-49.214303
 11
-16.795229
 21
-49.214303
  0
LINE
  5
306
100
AcDbEntity
  8
L
  6
CONTINUOUS
 62
     4
100
AcDbLine
 10
-16.795229
 20
-49.214303
 11
-16.795229
 21
-45.785733
  0
LINE
  5
307
100
AcDbEntity
  8
L
  6
CONTINUOUS
 62
     4
100
AcDbLine
 10
-16.795229
 20
-45.785733
 11
-22.795244
 21
-45.785733
  0
LINE
  5
308
100
AcDbEntity
  8
L
  6
CONTINUOUS
 62
     4
100
AcDbLine
 10
-13.795229
 20
-44.500013
 11
-13.795229
 21
-50.500008
  0
LINE
  5
309
100
AcDbEntity
  8
L
  6
CONTINUOUS
 62
     4
100
AcDbLine
 10
-12.509509
 20
-50.500008
 11
-12.509509
 21
-44.500013
  0
LINE
  5
30A
100
AcDbEntity
  8
L
  6
CONTINUOUS
 62
     4
100
AcDbLine
 10
-3.080934
 20
-44.500013
 11
-3.080934
 21
-45.785733
  0
LINE
  5
30B
100
AcDbEntity
  8
L
  6
CONTINUOUS
 62
     4
100
AcDbLine
 10
-3.080934
 20
-45.785733
 11
-9.509519
 21
-45.785733
  0
LINE
  5
30C
100
AcDbEntity
  8
L
  6
CONTINUOUS
 62
     4
100
AcDbLine
 10
-9.509519
 20
-45.785733
 11
-9.509519
 21
-46.857158
  0
LINE
  5
30D
100
AcDbEntity
  8
L
  6
CONTINUOUS
 62
     4
100
AcDbLine
 10
-9.509519
 20
-46.857158
 11
-3.080934
 21
-46.857158
  0
LINE
  5
30E
100
AcDbEntity
  8
L
  6
CONTINUOUS
 62
     4
100
AcDbLine
 10
-3.080934
 20
-46.857158
 11
-3.080934
 21
-48.142863
  0
LINE
  5
30F
100
AcDbEntity
  8
L
  6
CONTINUOUS
 62
     4
100
AcDbLine
 10
-3.080934
 20
-48.142863
 11
-9.509519
 21
-48.142863
  0
LINE
  5
310
100
AcDbEntity
  8
L
  6
CONTINUOUS
 62
     4
100
AcDbLine
 10
-9.509519
 20
-48.142863
 11
-9.509519
 21
-49.214303
  0
LINE
  5
311
100
AcDbEntity
  8
L
  6
CONTINUOUS
 62
     4
100
AcDbLine
 10
-9.509519
 20
-49.214303
 11
-3.080934
 21
-49.214303
  0
LINE
  5
312
100
AcDbEntity
  8
L
  6
CONTINUOUS
 62
     4
100
AcDbLine
 10
-3.080934
 20
-49.214303
 11
-3.080934
 21
-50.500008
  0
LINE
  5
313
100
AcDbEntity
  8
L
  6
CONTINUOUS
 62
     4
100
AcDbLine
 10
-10.795229
 20
-50.500008
 11
-10.795229
 21
-44.500013
  0
LINE
  5
314
100
AcDbEntity
  8
L
  6
CONTINUOUS
 62
     4
100
AcDbLine
 10
6.561911
 20
-44.500013
 11
6.561911
 21
-45.785733
  0
LINE
  5
315
100
AcDbEntity
  8
L
  6
CONTINUOUS
 62
     4
100
AcDbLine
 10
6.561911
 20
-45.785733
 11
-0.080944
 21
-45.785733
  0
LINE
  5
316
100
AcDbEntity
  8
L
  6
CONTINUOUS
 62
     4
100
AcDbLine
 10
-0.080944
 20
-45.785733
 11
-0.080944
 21
-46.857158
  0
LINE
  5
317
100
AcDbEntity
  8
L
  6
CONTINUOUS
 62
     4
100
AcDbLine
 10
-0.080944
 20
-46.857158
 11
6.561911
 21
-46.857158
  0
LINE
  5
318
100
AcDbEntity
  8
L
  6
CONTINUOUS
 62
     4
100
AcDbLine
 10
6.561911
 20
-46.857158
 11
6.561911
 21
-50.500008
  0
LINE
  5
319
100
AcDbEntity
  8
L
  6
CONTINUOUS
 62
     4
100
AcDbLine
 10
-1.366654
 20
-50.500008
 11
-1.366654
 21
-49.214303
  0
LINE
  5
31A
100
AcDbEntity
  8
L
  6
CONTINUOUS
 62
     4
100
AcDbLine
 10
-1.366654
 20
-49.214303
 11
5.276191
 21
-49.214303
  0
LINE
  5
31B
100
AcDbEntity
  8
L
  6
CONTINUOUS
 62
     4
100
AcDbLine
 10
5.276191
 20
-49.214303
 11
5.276191
 21
-48.142863
  0
LINE
  5
31C
100
AcDbEntity
  8
L
  6
CONTINUOUS
 62
     4
100
AcDbLine
 10
5.276191
 20
-48.142863
 11
-1.366654
 21
-48.142863
  0
LINE
  5
31D
100
AcDbEntity
  8
L
  6
CONTINUOUS
 62
     4
100
AcDbLine
 10
-1.366654
 20
-48.142863
 11
-1.366654
 21
-44.500013
  0
LINE
  5
31E
100
AcDbEntity
  8
L
  6
CONTINUOUS
 62
     4
100
AcDbLine
 10
15.776191
 20
-44.500013
 11
15.776191
 21
-45.785733
  0
LINE
  5
31F
100
AcDbEntity
  8
L
  6
CONTINUOUS
 62
     4
100
AcDbLine
 10
15.776191
 20
-45.785733
 11
9.776191
 21
-45.785733
  0
LINE
  5
320
100
AcDbEntity
  8
L
  6
CONTINUOUS
 62
     4
100
AcDbLine
 10
9.776191
 20
-45.785733
 11
9.776191
 21
-46.857158
  0
LINE
  5
321
100
AcDbEntity
  8
L
  6
CONTINUOUS
 62
     4
100
AcDbLine
 10
9.776191
 20
-46.857158
 11
15.776191
 21
-46.857158
  0
LINE
  5
322
100
AcDbEntity
  8
L
  6
CONTINUOUS
 62
     4
100
AcDbLine
 10
15.776191
 20
-46.857158
 11
15.776191
 21
-48.142863
  0
LINE
  5
323
100
AcDbEntity
  8
L
  6
CONTINUOUS
 62
     4
100
AcDbLine
 10
15.776191
 20
-48.142863
 11
9.776191
 21
-48.142863
  0
LINE
  5
324
100
AcDbEntity
  8
L
  6
CONTINUOUS
 62
     4
100
AcDbLine
 10
9.776191
 20
-48.142863
 11
9.776191
 21
-49.214303
  0
LINE
  5
325
100
AcDbEntity
  8
L
  6
CONTINUOUS
 62
     4
100
AcDbLine
 10
9.776191
 20
-49.214303
 11
15.776191
 21
-49.214303
  0
LINE
  5
326
100
AcDbEntity
  8
L
  6
CONTINUOUS
 62
     4
100
AcDbLine
 10
15.776191
 20
-49.214303
 11
15.776191
 21
-50.500008
  0
LINE
  5
327
100
AcDbEntity
  8
L
  6
CONTINUOUS
 62
     4
100
AcDbLine
 10
8.490486
 20
-50.500008
 11
8.490486
 21
-44.500013
  0
LINE
  5
328
100
AcDbEntity
  8
L
  6
CONTINUOUS
 62
     4
100
AcDbLine
 10
17.490486
 20
-44.500013
 11
17.490486
 21
-50.500008
  0
LINE
  5
329
100
AcDbEntity
  8
L
  6
CONTINUOUS
 62
     4
100
AcDbLine
 10
24.347646
 20
-50.500008
 11
24.347646
 21
-49.214303
  0
LINE
  5
32A
100
AcDbEntity
  8
L
  6
CONTINUOUS
 62
     4
100
AcDbLine
 10
24.347646
 20
-49.214303
 11
18.776206
 21
-49.214303
  0
LINE
  5
32B
100
AcDbEntity
  8
L
  6
CONTINUOUS
 62
     4
100
AcDbLine
 10
18.776206
 20
-49.214303
 11
18.776206
 21
-44.500013
  0
LINE
  5
32C
100
AcDbEntity
  8
L
  6
CONTINUOUS
 62
     2
100
AcDbLine
 10
33.066696
 20
-19.500013
 11
29.066676
 21
-21.100013
  0
LINE
  5
32D
100
AcDbEntity
  8
L
  6
CONTINUOUS
 62
     2
100
AcDbLine
 10
29.066676
 20
-21.100013
 11
36.800011
 21
-23.000013
  0
LINE
  5
32E
100
AcDbEntity
  8
L
  6
CONTINUOUS
 62
     2
100
AcDbLine
 10
36.800011
 20
-23.000013
 11
31.200011
 21
-24.600013
  0
LINE
  5
32F
100
AcDbEntity
  8
L
  6
CONTINUOUS
 62
     2
100
AcDbLine
 10
31.200011
 20
-24.600013
 11
38.933341
 21
-26.500013
  0
LINE
  5
330
100
AcDbEntity
  8
L
  6
CONTINUOUS
 62
     2
100
AcDbLine
 10
38.933341
 20
-26.500013
 11
32.266676
 21
-28.100013
  0
LINE
  5
331
100
AcDbEntity
  8
L
  6
CONTINUOUS
 62
     2
100
AcDbLine
 10
32.266676
 20
-28.100013
 11
40.000006
 21
-31.000013
  0
LINE
  5
332
100
AcDbEntity
  8
L
  6
CONTINUOUS
 62
     2
100
AcDbLine
 10
33.066696
 20
-19.500013
 11
-33.066679
 21
-19.500013
  0
LINE
  5
333
100
AcDbEntity
  8
L
  6
CONTINUOUS
 62
     2
100
AcDbLine
 10
33.066696
 20
-42.500013
 11
-33.066679
 21
-42.500013
  0
LINE
  5
334
100
AcDbEntity
  8
L
  6
CONTINUOUS
 62
     2
100
AcDbLine
 10
33.066696
 20
-42.500013
 11
29.066676
 21
-40.900013
  0
LINE
  5
335
100
AcDbEntity
  8
L
  6
CONTINUOUS
 62
     2
100
AcDbLine
 10
29.066676
 20
-40.900013
 11
36.800011
 21
-39.000013
  0
LINE
  5
336
100
AcDbEntity
  8
L
  6
CONTINUOUS
 62
     2
100
AcDbLine
 10
36.800011
 20
-39.000013
 11
31.200011
 21
-37.400013
  0
LINE
  5
337
100
AcDbEntity
  8
L
  6
CONTINUOUS
 62
     2
100
AcDbLine
 10
31.200011
 20
-37.400013
 11
38.933341
 21
-35.500013
  0
LINE
  5
338
100
AcDbEntity
  8
L
  6
CONTINUOUS
 62
     2
100
AcDbLine
 10
38.933341
 20
-35.500013
 11
32.266676
 21
-33.900013
  0
LINE
  5
339
100
AcDbEntity
  8
L
  6
CONTINUOUS
 62
     2
100
AcDbLine
 10
32.266676
 20
-33.900013
 11
40.000006
 21
-31.000013
  0
LINE
  5
33A
100
AcDbEntity
  8
L
  6
CONTINUOUS
 62
     2
100
AcDbLine
 10
-33.066679
 20
-19.500013
 11
-29.066659
 21
-21.100013
  0
LINE
  5
33B
100
AcDbEntity
  8
L
  6
CONTINUOUS
 62
     2
100
AcDbLine
 10
-29.066659
 20
-21.100013
 11
-36.799994
 21
-23.000013
  0
LINE
  5
33C
100
AcDbEntity
  8
L
  6
CONTINUOUS
 62
     2
100
AcDbLine
 10
-36.799994
 20
-23.000013
 11
-31.199994
 21
-24.600013
  0
LINE
  5
33D
100
AcDbEntity
  8
L
  6
CONTINUOUS
 62
     2
100
AcDbLine
 10
-31.199994
 20
-24.600013
 11
-38.933324
 21
-26.500013
  0
LINE
  5
33E
100
AcDbEntity
  8
L
  6
CONTINUOUS
 62
     2
100
AcDbLine
 10
-38.933324
 20
-26.500013
 11
-32.266659
 21
-28.100013
  0
LINE
  5
33F
100
AcDbEntity
  8
L
  6
CONTINUOUS
 62
     2
100
AcDbLine
 10
-32.266659
 20
-28.100013
 11
-39.999989
 21
-31.000013
  0
LINE
  5
340
100
AcDbEntity
  8
L
  6
CONTINUOUS
 62
     2
100
AcDbLine
 10
-33.066679
 20
-42.500013
 11
-29.066659
 21
-40.900013
  0
LINE
  5
341
100
AcDbEntity
  8
L
  6
CONTINUOUS
 62
     2
100
AcDbLine
 10
-29.066659
 20
-40.900013
 11
-36.799994
 21
-39.000013
  0
LINE
  5
342
100
AcDbEntity
  8
L
  6
CONTINUOUS
 62
     2
100
AcDbLine
 10
-36.799994
 20
-39.000013
 11
-31.199994
 21
-37.400013
  0
LINE
  5
343
100
AcDbEntity
  8
L
  6
CONTINUOUS
 62
     2
100
AcDbLine
 10
-31.199994
 20
-37.400013
 11
-38.933324
 21
-35.500013
  0
LINE
  5
344
100
AcDbEntity
  8
L
  6
CONTINUOUS
 62
     2
100
AcDbLine
 10
-38.933324
 20
-35.500013
 11
-32.266659
 21
-33.900013
  0
LINE
  5
345
100
AcDbEntity
  8
L
  6
CONTINUOUS
 62
     2
100
AcDbLine
 10
-32.266659
 20
-33.900013
 11
-39.999989
 21
-31.000013
  0
LINE
  5
346
100
AcDbEntity
  8
L
  6
CONTINUOUS
 62
     3
100
AcDbLine
 10
-23.999979
 20
-23.533343
 11
-19.999979
 21
-23.533343
  0
LINE
  5
347
100
AcDbEntity
  8
L
  6
CONTINUOUS
 62
     3
100
AcDbLine
 10
-19.999979
 20
-23.533343
 11
-19.999979
 21
-29.133343
  0
LINE
  5
348
100
AcDbEntity
  8
L
  6
CONTINUOUS
 62
     3
100
AcDbLine
 10
-19.999979
 20
-29.133343
 11
-16.533309
 21
-29.133343
  0
LINE
  5
349
100
AcDbEntity
  8
L
  6
CONTINUOUS
 62
     3
100
AcDbLine
 10
-16.533309
 20
-29.133343
 11
-16.533309
 21
-23.533343
  0
LINE
  5
34A
100
AcDbEntity
  8
L
  6
CONTINUOUS
 62
     3
100
AcDbLine
 10
-16.533309
 20
-23.533343
 11
-12.533309
 21
-23.533343
  0
LINE
  5
34B
100
AcDbEntity
  8
L
  6
CONTINUOUS
 62
     3
100
AcDbLine
 10
-12.533309
 20
-23.533343
 11
-12.533309
 21
-38.466683
  0
LINE
  5
34C
100
AcDbEntity
  8
L
  6
CONTINUOUS
 62
     3
100
AcDbLine
 10
-12.533309
 20
-38.466683
 11
-16.533309
 21
-38.466683
  0
LINE
  5
34D
100
AcDbEntity
  8
L
  6
CONTINUOUS
 62
     3
100
AcDbLine
 10
-16.533309
 20
-38.466683
 11
-16.533309
 21
-32.866683
  0
LINE
  5
34E
100
AcDbEntity
  8
L
  6
CONTINUOUS
 62
     3
100
AcDbLine
 10
-16.533309
 20
-32.866683
 11
-19.999979
 21
-32.866683
  0
LINE
  5
34F
100
AcDbEntity
  8
L
  6
CONTINUOUS
 62
     3
100
AcDbLine
 10
-19.999979
 20
-32.866683
 11
-19.999979
 21
-38.466683
  0
LINE
  5
350
100
AcDbEntity
  8
L
  6
CONTINUOUS
 62
     3
100
AcDbLine
 10
-19.999979
 20
-38.466683
 11
-23.999979
 21
-38.466683
  0
LINE
  5
351
100
AcDbEntity
  8
L
  6
CONTINUOUS
 62
     3
100
AcDbLine
 10
-23.999979
 20
-38.466683
 11
-23.999979
 21
-23.533343
  0
LINE
  5
352
100
AcDbEntity
  8
L
  6
CONTINUOUS
 62
     3
100
AcDbLine
 10
-10.933309
 20
-38.466683
 11
-6.933309
 21
-38.466683
  0
LINE
  5
353
100
AcDbEntity
  8
L
  6
CONTINUOUS
 62
     3
100
AcDbLine
 10
-10.933309
 20
-38.466683
 11
-6.399979
 21
-23.533343
  0
LINE
  5
354
100
AcDbEntity
  8
L
  6
CONTINUOUS
 62
     3
100
AcDbLine
 10
-6.399979
 20
-23.533343
 11
-2.133309
 21
-23.533343
  0
LINE
  5
355
100
AcDbEntity
  8
L
  6
CONTINUOUS
 62
     3
100
AcDbLine
 10
-2.133309
 20
-23.533343
 11
2.400021
 21
-38.466683
  0
LINE
  5
356
100
AcDbEntity
  8
L
  6
CONTINUOUS
 62
     3
100
AcDbLine
 10
2.400021
 20
-38.466683
 11
-1.599979
 21
-38.466683
  0
LINE
  5
357
100
AcDbEntity
  8
L
  6
CONTINUOUS
 62
     3
100
AcDbLine
 10
-1.599979
 20
-38.466683
 11
-2.285684
 21
-36.333343
  0
LINE
  5
358
100
AcDbEntity
  8
L
  6
CONTINUOUS
 62
     3
100
AcDbLine
 10
-3.228549
 20
-33.400008
 11
-4.266644
 21
-30.170368
  0
LINE
  5
359
100
AcDbEntity
  8
L
  6
CONTINUOUS
 62
     3
100
AcDbLine
 10
-6.933309
 20
-38.466683
 11
-6.247589
 21
-36.333343
  0
LINE
  5
35A
100
AcDbEntity
  8
L
  6
CONTINUOUS
 62
     3
100
AcDbLine
 10
-5.304739
 20
-33.400008
 11
-4.266644
 21
-30.170368
  0
LINE
  5
35B
100
AcDbEntity
  8
L
  6
CONTINUOUS
 62
     3
100
AcDbLine
 10
-6.247589
 20
-36.333343
 11
-2.285684
 21
-36.333343
  0
LINE
  5
35C
100
AcDbEntity
  8
L
  6
CONTINUOUS
 62
     3
100
AcDbLine
 10
-5.304739
 20
-33.400008
 11
-3.228549
 21
-33.400008
  0
LINE
  5
35D
100
AcDbEntity
  8
L
  6
CONTINUOUS
 62
     3
100
AcDbLine
 10
2.400021
 20
-23.533343
 11
2.400021
 21
-27.266683
  0
LINE
  5
35E
100
AcDbEntity
  8
L
  6
CONTINUOUS
 62
     3
100
AcDbLine
 10
2.400021
 20
-27.266683
 11
5.066676
 21
-27.266683
  0
LINE
  5
35F
100
AcDbEntity
  8
L
  6
CONTINUOUS
 62
     3
100
AcDbLine
 10
5.066676
 20
-27.266683
 11
5.066676
 21
-38.466683
  0
LINE
  5
360
100
AcDbEntity
  8
L
  6
CONTINUOUS
 62
     3
100
AcDbLine
 10
5.066676
 20
-38.466683
 11
9.066676
 21
-38.466683
  0
LINE
  5
361
100
AcDbEntity
  8
L
  6
CONTINUOUS
 62
     3
100
AcDbLine
 10
9.066676
 20
-38.466683
 11
9.066676
 21
-27.266683
  0
LINE
  5
362
100
AcDbEntity
  8
L
  6
CONTINUOUS
 62
     3
100
AcDbLine
 10
9.066676
 20
-27.266683
 11
11.733341
 21
-27.266683
  0
LINE
  5
363
100
AcDbEntity
  8
L
  6
CONTINUOUS
 62
     3
100
AcDbLine
 10
11.733341
 20
-27.266683
 11
11.733341
 21
-23.533343
  0
LINE
  5
364
100
AcDbEntity
  8
L
  6
CONTINUOUS
 62
     3
100
AcDbLine
 10
11.733341
 20
-23.533343
 11
2.400021
 21
-23.533343
  0
LINE
  5
365
100
AcDbEntity
  8
L
  6
CONTINUOUS
 62
     3
100
AcDbLine
 10
13.333341
 20
-23.533343
 11
24.266676
 21
-23.533343
  0
LINE
  5
366
100
AcDbEntity
  8
L
  6
CONTINUOUS
 62
     3
100
AcDbLine
 10
13.333341
 20
-23.533343
 11
13.333341
 21
-27.266683
  0
LINE
  5
367
100
AcDbEntity
  8
L
  6
CONTINUOUS
 62
     3
100
AcDbLine
 10
13.333341
 20
-27.266683
 11
18.133341
 21
-27.266683
  0
LINE
  5
368
100
AcDbEntity
  8
L
  6
CONTINUOUS
 62
     3
100
AcDbLine
 10
18.133341
 20
-27.266683
 11
12.800011
 21
-38.466683
  0
LINE
  5
369
100
AcDbEntity
  8
L
  6
CONTINUOUS
 62
     3
100
AcDbLine
 10
12.800011
 20
-38.466683
 11
23.733341
 21
-38.466683
  0
LINE
  5
36A
100
AcDbEntity
  8
L
  6
CONTINUOUS
 62
     3
100
AcDbLine
 10
23.733341
 20
-38.466683
 11
23.733341
 21
-34.733343
  0
LINE
  5
36B
100
AcDbEntity
  8
L
  6
CONTINUOUS
 62
     3
100
AcDbLine
 10
23.733341
 20
-34.733343
 11
18.933341
 21
-34.733343
  0
LINE
  5
36C
100
AcDbEntity
  8
L
  6
CONTINUOUS
 62
     3
100
AcDbLine
 10
18.933341
 20
-34.733343
 11
24.266676
 21
-23.533343
  0
LINE
  5
36D
100
AcDbEntity
  8
L
  6
CONTINUOUS
 62
     2
100
AcDbLine
 10
-46.999999
 20
-45.000003
 11
-49.999999
 21
-51.000003
  0
LINE
  5
36E
100
AcDbEntity
  8
L
  6
CONTINUOUS
 62
     2
100
AcDbLine
 10
-49.999999
 20
-51.000003
 11
-52.999999
 21
-45.000003
  0
LINE
  5
36F
100
AcDbEntity
  8
L
  6
CONTINUOUS
 62
     2
100
AcDbLine
 10
-52.999999
 20
-45.000003
 11
-50.999999
 21
-45.000003
  0
LINE
  5
370
100
AcDbEntity
  8
L
  6
CONTINUOUS
 62
     2
100
AcDbLine
 10
-48.999999
 20
-45.000003
 11
-46.999999
 21
-45.000003
  0
LINE
  5
371
100
AcDbEntity
  8
L
  6
CONTINUOUS
 62
     2
100
AcDbLine
 10
-48.999999
 20
-45.000003
 11
-48.999999
 21
-31.000003
  0
LINE
  5
372
100
AcDbEntity
  8
L
  6
CONTINUOUS
 62
     2
100
AcDbLine
 10
-48.999999
 20
-31.000003
 11
-50.999999
 21
-31.000003
  0
LINE
  5
373
100
AcDbEntity
  8
L
  6
CONTINUOUS
 62
     2
100
AcDbLine
 10
-50.999999
 20
-31.000003
 11
-50.999999
 21
-45.000003
  0
LINE
  5
374
100
AcDbEntity
  8
L
  6
CONTINUOUS
 62
     2
100
AcDbLine
 10
-45.999999
 20
-41.000003
 11
-43.999999
 21
-37.000003
  0
LINE
  5
375
100
AcDbEntity
  8
L
  6
CONTINUOUS
 62
     2
100
AcDbLine
 10
-43.999999
 20
-37.000003
 11
-41.999999
 21
-41.000003
  0
LINE
  5
376
100
AcDbEntity
  8
L
  6
CONTINUOUS
 62
     2
100
AcDbLine
 10
-41.999999
 20
-41.000003
 11
-43.249999
 21
-41.000003
  0
LINE
  5
377
100
AcDbEntity
  8
L
  6
CONTINUOUS
 62
     2
100
AcDbLine
 10
-44.749999
 20
-41.000003
 11
-45.999999
 21
-41.000003
  0
LINE
  5
378
100
AcDbEntity
  8
L
  6
CONTINUOUS
 62
     2
100
AcDbLine
 10
-43.249999
 20
-41.000003
 11
-43.249999
 21
-42.000003
  0
LINE
  5
379
100
AcDbEntity
  8
L
  6
CONTINUOUS
 62
     2
100
AcDbLine
 10
-43.249999
 20
-43.000003
 11
-43.249999
 21
-45.000003
  0
LINE
  5
37A
100
AcDbEntity
  8
L
  6
CONTINUOUS
 62
     2
100
AcDbLine
 10
-43.249999
 20
-46.000003
 11
-43.249999
 21
-48.000003
  0
LINE
  5
37B
100
AcDbEntity
  8
L
  6
CONTINUOUS
 62
     2
100
AcDbLine
 10
-43.249999
 20
-49.000003
 11
-43.249999
 21
-51.000003
  0
LINE
  5
37C
100
AcDbEntity
  8
L
  6
CONTINUOUS
 62
     2
100
AcDbLine
 10
-43.249999
 20
-51.000003
 11
-44.749999
 21
-51.000003
  0
LINE
  5
37D
100
AcDbEntity
  8
L
  6
CONTINUOUS
 62
     2
100
AcDbLine
 10
-44.749999
 20
-51.000003
 11
-44.749999
 21
-49.000003
  0
LINE
  5
37E
100
AcDbEntity
  8
L
  6
CONTINUOUS
 62
     2
100
AcDbLine
 10
-44.749999
 20
-48.000003
 11
-44.749999
 21
-46.000003
  0
LINE
  5
37F
100
AcDbEntity
  8
L
  6
CONTINUOUS
 62
     2
100
AcDbLine
 10
-44.749999
 20
-45.000003
 11
-44.749999
 21
-43.000003
  0
LINE
  5
380
100
AcDbEntity
  8
L
  6
CONTINUOUS
 62
     2
100
AcDbLine
 10
-44.749999
 20
-42.000003
 11
-44.749999
 21
-41.000003
  0
LINE
  5
381
100
AcDbEntity
  8
L
  6
CONTINUOUS
 62
     2
100
AcDbLine
 10
-43.249999
 20
-49.000003
 11
-44.749999
 21
-49.000003
  0
LINE
  5
382
100
AcDbEntity
  8
L
  6
CONTINUOUS
 62
     2
100
AcDbLine
 10
-43.249999
 20
-48.000003
 11
-44.749999
 21
-48.000003
  0
LINE
  5
383
100
AcDbEntity
  8
L
  6
CONTINUOUS
 62
     2
100
AcDbLine
 10
-43.249999
 20
-46.000003
 11
-44.749999
 21
-46.000003
  0
LINE
  5
384
100
AcDbEntity
  8
L
  6
CONTINUOUS
 62
     2
100
AcDbLine
 10
-43.249999
 20
-45.000003
 11
-44.749999
 21
-45.000003
  0
LINE
  5
385
100
AcDbEntity
  8
L
  6
CONTINUOUS
 62
     2
100
AcDbLine
 10
-43.249999
 20
-43.000003
 11
-44.749999
 21
-43.000003
  0
LINE
  5
386
100
AcDbEntity
  8
L
  6
CONTINUOUS
 62
     2
100
AcDbLine
 10
-43.249999
 20
-42.000003
 11
-44.749999
 21
-42.000003
  0
ENDBLK
  5
387
100
AcDbEntity
  8
0
100
AcDbBlockEnd
  0
BLOCK
  5
388
100
AcDbEntity
  8
L
100
AcDbBlockBegin
  2
B-9
 70
    66
 10
0.000000
 20
0.000000
 30
0.000000
  0
LINE
  5
389
100
AcDbEntity
  8
L
  6
CONTINUOUS
 62
     2
100
AcDbLine
 10
-32.994450
 20
62.000000
 11
-36.747225
 21
55.500000
  0
LINE
  5
38A
100
AcDbEntity
  8
L
  6
CONTINUOUS
 62
     2
100
AcDbLine
 10
-36.747225
 20
55.500000
 11
-44.252780
 21
55.500000
  0
LINE
  5
38B
100
AcDbEntity
  8
L
  6
CONTINUOUS
 62
     2
100
AcDbLine
 10
-44.252780
 20
55.500000
 11
-48.005555
 21
62.000000
  0
LINE
  5
38C
100
AcDbEntity
  8
L
  6
CONTINUOUS
 62
     2
100
AcDbLine
 10
-48.005555
 20
62.000000
 11
-44.252780
 21
68.500000
  0
LINE
  5
38D
100
AcDbEntity
  8
L
  6
CONTINUOUS
 62
     2
100
AcDbLine
 10
-44.252780
 20
68.500000
 11
-36.747225
 21
68.500000
  0
LINE
  5
38E
100
AcDbEntity
  8
L
  6
CONTINUOUS
 62
     2
100
AcDbLine
 10
-36.747225
 20
68.500000
 11
-32.994450
 21
62.000000
  0
CIRCLE
  5
38F
100
AcDbEntity
  8
L
  6
CONTINUOUS
 62
     2
100
AcDbCircle
 10
-40.500005
 20
62.000000
 40
6.500000
  0
LINE
  5
390
100
AcDbEntity
  8
L
  6
CONTINUOUS
 62
     2
100
AcDbLine
 10
52.005540
 20
62.000000
 11
48.252765
 21
55.500000
  0
LINE
  5
391
100
AcDbEntity
  8
L
  6
CONTINUOUS
 62
     2
100
AcDbLine
 10
48.252765
 20
55.500000
 11
40.747210
 21
55.500000
  0
LINE
  5
392
100
AcDbEntity
  8
L
  6
CONTINUOUS
 62
     2
100
AcDbLine
 10
40.747210
 20
55.500000
 11
36.994435
 21
62.000000
  0
LINE
  5
393
100
AcDbEntity
  8
L
  6
CONTINUOUS
 62
     2
100
AcDbLine
 10
36.994435
 20
62.000000
 11
40.747210
 21
68.500000
  0
LINE
  5
394
100
AcDbEntity
  8
L
  6
CONTINUOUS
 62
     2
100
AcDbLine
 10
40.747210
 20
68.500000
 11
48.252765
 21
68.500000
  0
LINE
  5
395
100
AcDbEntity
  8
L
  6
CONTINUOUS
 62
     2
100
AcDbLine
 10
48.252765
 20
68.500000
 11
52.005540
 21
62.000000
  0
CIRCLE
  5
396
100
AcDbEntity
  8
L
  6
CONTINUOUS
 62
     2
100
AcDbCircle
 10
44.499985
 20
62.000000
 40
6.500000
  0
ENDBLK
  5
397
100
AcDbEntity
  8
0
100
AcDbBlockEnd
  0
BLOCK
  5
398
100
AcDbEntity
  8
L
100
AcDbBlockBegin
  2
B-10
 70
    66
 10
0.000000
 20
0.000000
 30
0.000000
  0
CIRCLE
  5
399
100
AcDbEntity
  8
L
  6
CONTINUOUS
 62
     2
100
AcDbCircle
 10
-40.500005
 20
62.000000
 40
4.000000
  0
CIRCLE
  5
39A
100
AcDbEntity
  8
L
  6
CONTINUOUS
 62
     2
100
AcDbCircle
 10
44.499985
 20
62.000000
 40
4.000000
  0
ARC
  5
39B
100
AcDbEntity
  8
L
  6
CONTINUOUS
 62
     4
100
AcDbCircle
 10
-40.500005
 20
62.000000
 40
3.199999
100
AcDbArc
 50
251.307966
 51
0.000000
  0
ARC
  5
39C
100
AcDbEntity
  8
L
  6
CONTINUOUS
 62
     4
100
AcDbCircle
 10
-40.500005
 20
62.000000
 40
3.200000
100
AcDbArc
 50
0.000000
 51
205.681247
  0
ARC
  5
39D
100
AcDbEntity
  8
L
  6
CONTINUOUS
 62
     4
100
AcDbCircle
 10
44.499985
 20
62.000000
 40
3.199997
100
AcDbArc
 50
238.858697
 51
0.000000
  0
ARC
  5
39E
100
AcDbEntity
  8
L
  6
CONTINUOUS
 62
     4
100
AcDbCircle
 10
44.499985
 20
62.000000
 40
3.200000
100
AcDbArc
 50
0.000000
 51
197.694730
  0
ENDBLK
  5
39F
100
AcDbEntity
  8
0
100
AcDbBlockEnd
  0
BLOCK
  5
3A0
100
AcDbEntity
  8
L
100
AcDbBlockBegin
  2
B-11
 70
    66
 10
0.000000
 20
0.000000
 30
0.000000
  0
ARC
  5
3A1
100
AcDbEntity
  8
L
  6
CONTINUOUS
 62
     2
100
AcDbCircle
 10
-40.500005
 20
62.000000
 40
12.500004
100
AcDbArc
 50
98.752491
 51
261.247438
  0
ARC
  5
3A2
100
AcDbEntity
  8
L
  6
CONTINUOUS
 62
     2
100
AcDbCircle
 10
44.499985
 20
62.000000
 40
12.499994
100
AcDbArc
 50
278.752637
 51
81.247412
  0
ARC
  5
3A3
100
AcDbEntity
  8
L
  6
CONTINUOUS
 62
     2
100
AcDbCircle
 10
-40.500011
 20
62.000018
 40
12.500018
100
AcDbArc
 50
261.247479
 51
320.208082
  0
ARC
  5
3A4
100
AcDbEntity
  8
L
  6
CONTINUOUS
 62
     2
100
AcDbCircle
 10
44.499948
 20
61.999926
 40
12.499926
100
AcDbArc
 50
219.791721
 51
278.752854
  0
ENDBLK
  5
3A5
100
AcDbEntity
  8
0
100
AcDbBlockEnd
  0
BLOCK
  5
3A6
100
AcDbEntity
  8
L
100
AcDbBlockBegin
  2
B-12
 70
    66
 10
0.000000
 20
0.000000
 30
0.000000
  0
ARC
  5
3A7
100
AcDbEntity
  8
L
  6
CONTINUOUS
 62
     2
100
AcDbCircle
 10
-67.999995
 20
-94.000000
 40
17.500001
100
AcDbArc
 50
134.415312
 51
30.105984
  0
ENDBLK
  5
3A8
100
AcDbEntity
  8
0
100
AcDbBlockEnd
  0
BLOCK
  5
3A9
100
AcDbEntity
  8
L
100
AcDbBlockBegin
  2
B-13
 70
    66
 10
0.000000
 20
0.000000
 30
0.000000
  0
LINE
  5
3AA
100
AcDbEntity
  8
L
  6
CONTINUOUS
 62
     2
100
AcDbLine
 10
-112.000010
 20
-114.000000
 11
81.300005
 21
-113.999995
  0
LINE
  5
3AB
100
AcDbEntity
  8
L
  6
CONTINUOUS
 62
     2
100
AcDbLine
 10
72.850015
 20
-142.801970
 11
-72.849980
 21
-142.804400
  0
LINE
  5
3AC
100
AcDbEntity
  8
L
  6
CONTINUOUS
 62
     2
100
AcDbLine
 10
-113.000015
 20
-128.000000
 11
-113.000010
 21
-115.000000
  0
LINE
  5
3AD
100
AcDbEntity
  8
L
  6
CONTINUOUS
 62
     2
100
AcDbLine
 10
-113.000010
 20
-124.000000
 11
83.439450
 21
-123.999995
  0
LINE
  5
3AE
100
AcDbEntity
  8
L
  6
CONTINUOUS
 62
     2
100
AcDbLine
 10
-113.000010
 20
-128.000000
 11
86.101345
 21
-127.999995
  0
LINE
  5
3AF
100
AcDbEntity
  8
L
  6
CONTINUOUS
 62
     2
100
AcDbLine
 10
-99.699990
 20
-139.799975
 11
99.700005
 21
-139.799980
  0
LINE
  5
3B0
100
AcDbEntity
  8
L
  6
CONTINUOUS
 62
     2
100
AcDbLine
 10
-101.999990
 20
-115.000000
 11
-101.999990
 21
-122.400000
  0
LINE
  5
3B1
100
AcDbEntity
  8
L
  6
CONTINUOUS
 62
     2
100
AcDbLine
 10
-101.999990
 20
-129.600000
 11
-101.999990
 21
-137.500000
  0
LINE
  5
3B2
100
AcDbEntity
  8
L
  6
CONTINUOUS
 62
     2
100
AcDbLine
 10
102.000005
 20
-134.999965
 11
102.000005
 21
-137.500000
  0
LINE
  5
3B3
100
AcDbEntity
  8
L
  6
CONTINUOUS
 62
     2
100
AcDbLine
 10
-106.999990
 20
-124.000000
 11
-106.999990
 21
-128.000000
  0
LINE
  5
3B4
100
AcDbEntity
  8
L
  6
CONTINUOUS
 62
     2
100
AcDbLine
 10
-73.849995
 20
-140.299975
 11
-73.849995
 21
-141.804400
  0
ARC
  5
3B5
100
AcDbEntity
  8
L
  6
CONTINUOUS
 62
     2
100
AcDbCircle
 10
-74.349998
 20
-140.299980
 40
0.500005
100
AcDbArc
 50
0.000599
 51
89.999646
  0
ARC
  5
3B6
100
AcDbEntity
  8
L
  6
CONTINUOUS
 62
     2
100
AcDbCircle
 10
-72.849998
 20
-141.804403
 40
0.999997
100
AcDbArc
 50
179.999846
 51
270.001036
  0
LINE
  5
3B7
100
AcDbEntity
  8
L
  6
CONTINUOUS
 62
     2
100
AcDbLine
 10
73.850000
 20
-140.299980
 11
73.850000
 21
-141.801970
  0
ARC
  5
3B8
100
AcDbEntity
  8
L
  6
CONTINUOUS
 62
     2
100
AcDbCircle
 10
74.350002
 20
-140.299984
 40
0.500004
100
AcDbArc
 50
90.000219
 51
179.999589
  0
ARC
  5
3B9
100
AcDbEntity
  8
L
  6
CONTINUOUS
 62
     2
100
AcDbCircle
 10
72.850002
 20
-141.801976
 40
0.999994
100
AcDbArc
 50
270.000750
 51
0.000344
  0
LINE
  5
3BA
100
AcDbEntity
  8
L
  6
CONTINUOUS
 62
     2
100
AcDbLine
 10
99.700005
 20
-139.799980
 11
102.000005
 21
-137.500000
  0
LINE
  5
3BB
100
AcDbEntity
  8
L
  6
CONTINUOUS
 62
     2
100
AcDbLine
 10
-101.999990
 20
-137.500000
 11
-99.699990
 21
-139.799975
  0
LINE
  5
3BC
100
AcDbEntity
  8
L
  6
CONTINUOUS
 62
     2
100
AcDbLine
 10
-101.999990
 20
-137.500000
 11
102.000005
 21
-137.500000
  0
LINE
  5
3BD
100
AcDbEntity
  8
L
  6
CONTINUOUS
 62
     2
100
AcDbLine
 10
81.300005
 20
-114.999995
 11
-113.000010
 21
-115.000000
  0
LINE
  5
3BE
100
AcDbEntity
  8
L
  6
CONTINUOUS
 62
     2
100
AcDbLine
 10
-101.999990
 20
-115.000000
 11
-100.999990
 21
-114.000000
  0
ARC
  5
3BF
100
AcDbEntity
  8
L
  6
CONTINUOUS
 62
     2
100
AcDbCircle
 10
-103.599993
 20
-122.400004
 40
1.600003
100
AcDbArc
 50
270.000111
 51
0.000156
  0
ARC
  5
3C0
100
AcDbEntity
  8
L
  6
CONTINUOUS
 62
     2
100
AcDbCircle
 10
-103.599993
 20
-129.600004
 40
1.600003
100
AcDbArc
 50
0.000156
 51
89.999889
  0
LINE
  5
3C1
100
AcDbEntity
  8
L
  6
CONTINUOUS
 62
     2
100
AcDbLine
 10
-107.999925
 20
-124.000000
 11
-107.999925
 21
-128.000000
  0
LINE
  5
3C2
100
AcDbEntity
  8
L
  6
CONTINUOUS
 62
     2
100
AcDbLine
 10
-113.000010
 20
-115.000000
 11
-112.000010
 21
-114.000000
  0
LINE
  5
3C3
100
AcDbEntity
  8
L
  6
CONTINUOUS
 62
     2
100
AcDbLine
 10
-7.937240
 20
-128.000000
 11
-7.937240
 21
-137.500000
  0
LINE
  5
3C4
100
AcDbEntity
  8
L
  6
CONTINUOUS
 62
     2
100
AcDbLine
 10
7.937260
 20
-128.000000
 11
7.937260
 21
-137.500000
  0
LINE
  5
3C5
100
AcDbEntity
  8
L
  6
CONTINUOUS
 62
     2
100
AcDbLine
 10
7.937260
 20
-137.500000
 11
9.757050
 21
-139.799980
  0
LINE
  5
3C6
100
AcDbEntity
  8
L
  6
CONTINUOUS
 62
     2
100
AcDbLine
 10
-7.937240
 20
-137.500000
 11
-9.757035
 21
-139.799975
  0
LINE
  5
3C7
100
AcDbEntity
  8
L
  6
CONTINUOUS
 62
     4
100
AcDbLine
 10
-13.416400
 20
-125.000000
 11
-13.416400
 21
-127.000000
  0
LINE
  5
3C8
100
AcDbEntity
  8
L
  6
CONTINUOUS
 62
     4
100
AcDbLine
 10
13.416420
 20
-125.000000
 11
13.416420
 21
-127.000000
  0
LINE
  5
3C9
100
AcDbEntity
  8
L
  6
CONTINUOUS
 62
     4
100
AcDbLine
 10
-8.944255
 20
-116.000000
 11
-8.944255
 21
-123.000000
  0
LINE
  5
3CA
100
AcDbEntity
  8
L
  6
CONTINUOUS
 62
     4
100
AcDbLine
 10
8.944280
 20
-116.000000
 11
8.944280
 21
-123.000000
  0
ENDBLK
  5
3CB
100
AcDbEntity
  8
0
100
AcDbBlockEnd
  0
BLOCK
  5
3CC
100
AcDbEntity
  8
L
100
AcDbBlockBegin
  2
B-14
 70
    66
 10
0.000000
 20
0.000000
 30
0.000000
  0
LINE
  5
3CD
100
AcDbEntity
  8
L
  6
CONTINUOUS
 62
     2
100
AcDbLine
 10
-134.999865
 20
-85.000215
 11
-127.499860
 21
-85.000215
  0
LINE
  5
3CE
100
AcDbEntity
  8
L
  6
CONTINUOUS
 62
     2
100
AcDbLine
 10
-134.999865
 20
-89.000215
 11
-127.499860
 21
-89.000215
  0
ARC
  5
3CF
100
AcDbEntity
  8
L
  6
CONTINUOUS
 62
     2
100
AcDbCircle
 10
-134.999870
 20
-87.000218
 40
1.999997
100
AcDbArc
 50
89.999866
 51
270.000134
  0
ARC
  5
3D0
100
AcDbEntity
  8
L
  6
CONTINUOUS
 62
     2
100
AcDbCircle
 10
-149.999778
 20
-74.009786
 40
1.999991
100
AcDbArc
 50
119.999238
 51
209.999891
  0
ARC
  5
3D1
100
AcDbEntity
  8
L
  6
CONTINUOUS
 62
     2
100
AcDbCircle
 10
-149.999778
 20
-74.009786
 40
2.000002
100
AcDbArc
 50
29.999989
 51
49.017717
  0
ARC
  5
3D2
100
AcDbEntity
  8
L
  6
CONTINUOUS
 62
     2
100
AcDbCircle
 10
-127.499865
 20
-87.000218
 40
2.000003
100
AcDbArc
 50
270.000134
 51
89.999866
  0
ARC
  5
3D3
100
AcDbEntity
  8
L
  6
CONTINUOUS
 62
     2
100
AcDbCircle
 10
-149.999958
 20
-99.990545
 40
2.000011
100
AcDbArc
 50
149.999825
 51
330.000171
  0
LINE
  5
3D4
100
AcDbEntity
  8
L
  6
CONTINUOUS
 62
     2
100
AcDbLine
 10
-163.993960
 20
-96.500215
 11
-176.499860
 21
-96.500215
  0
LINE
  5
3D5
100
AcDbEntity
  8
L
  6
CONTINUOUS
 62
     2
100
AcDbLine
 10
-176.499860
 20
-96.500215
 11
-176.499860
 21
-77.500215
  0
LINE
  5
3D6
100
AcDbEntity
  8
L
  6
CONTINUOUS
 62
     2
100
AcDbLine
 10
-176.499860
 20
-77.500215
 11
-163.994140
 21
-77.500215
  0
LINE
  5
3D7
100
AcDbEntity
  8
L
  6
CONTINUOUS
 62
     2
100
AcDbLine
 10
-176.499860
 20
-90.500215
 11
-165.737735
 21
-90.500215
  0
LINE
  5
3D8
100
AcDbEntity
  8
L
  6
BORDER
 62
     4
100
AcDbLine
 10
-167.615130
 20
-72.499960
 11
-159.361865
 21
-77.265005
  0
LINE
  5
3D9
100
AcDbEntity
  8
L
  6
BORDER
 62
     4
100
AcDbLine
 10
-117.385055
 20
-72.499960
 11
-125.638145
 21
-77.264935
  0
LINE
  5
3DA
100
AcDbEntity
  8
L
  6
BORDER
 62
     4
100
AcDbLine
 10
-125.638105
 20
-96.735425
 11
-106.716980
 21
-107.659540
  0
LINE
  5
3DB
100
AcDbEntity
  8
L
  6
BORDER
 62
     4
100
AcDbLine
 10
-159.361825
 20
-96.735495
 11
-178.282905
 21
-107.659690
  0
ARC
  5
3DC
100
AcDbEntity
  8
L
  6
CONTINUOUS
 62
     2
100
AcDbCircle
 10
-142.499865
 20
-115.867838
 40
5.500005
100
AcDbArc
 50
179.999972
 51
0.000028
  0
ARC
  5
3DD
100
AcDbEntity
  8
L
  6
CONTINUOUS
 62
     2
100
AcDbCircle
 10
-167.499840
 20
-101.434028
 40
5.500002
100
AcDbArc
 50
120.000175
 51
300.000287
  0
LINE
  5
3DE
100
AcDbEntity
  8
L
  6
CONTINUOUS
 62
     2
100
AcDbLine
 10
-170.249895
 20
-77.329650
 11
-169.954470
 21
-77.500215
  0
LINE
  5
3DF
100
AcDbEntity
  8
L
  6
CONTINUOUS
 62
     2
100
AcDbLine
 10
-114.749755
 20
-77.329330
 11
-119.963500
 21
-80.339515
  0
LINE
  5
3E0
100
AcDbEntity
  8
L
  6
CONTINUOUS
 62
     2
100
AcDbLine
 10
-114.749715
 20
-96.670985
 11
-119.963575
 21
-93.660765
  0
LINE
  5
3E1
100
AcDbEntity
  8
L
  6
CONTINUOUS
 62
     2
100
AcDbLine
 10
-120.249715
 20
-106.197265
 11
-125.463675
 21
-103.186985
  0
LINE
  5
3E2
100
AcDbEntity
  8
L
  6
CONTINUOUS
 62
     2
100
AcDbLine
 10
-136.999860
 20
-115.867835
 11
-136.999860
 21
-109.847330
  0
LINE
  5
3E3
100
AcDbEntity
  8
L
  6
CONTINUOUS
 62
     2
100
AcDbLine
 10
-147.999860
 20
-115.867835
 11
-147.999860
 21
-115.526275
  0
LINE
  5
3E4
100
AcDbEntity
  8
L
  6
CONTINUOUS
 62
     2
100
AcDbLine
 10
-164.749815
 20
-106.197155
 11
-164.454590
 21
-106.026705
  0
LINE
  5
3E5
100
AcDbEntity
  8
L
  6
CONTINUOUS
 62
     2
100
AcDbLine
 10
-170.249855
 20
-96.670895
 11
-169.954230
 21
-96.500215
  0
ARC
  5
3E6
100
AcDbEntity
  8
L
  6
CONTINUOUS
 62
     2
100
AcDbCircle
 10
-167.499900
 20
-72.566513
 40
5.499992
100
AcDbArc
 50
202.903662
 51
240.000030
  0
ARC
  5
3E7
100
AcDbEntity
  8
L
  6
CONTINUOUS
 62
     2
100
AcDbCircle
 10
-117.499780
 20
-72.566203
 40
5.500009
100
AcDbArc
 50
300.000287
 51
0.690093
  0
ARC
  5
3E8
100
AcDbEntity
  8
L
  6
CONTINUOUS
 62
     2
100
AcDbCircle
 10
-117.499720
 20
-101.434128
 40
5.500005
100
AcDbArc
 50
240.000030
 51
59.999973
  0
ARC
  5
3E9
100
AcDbEntity
  8
L
  6
CONTINUOUS
 62
     2
100
AcDbCircle
 10
-132.608700
 20
-119.391309
 40
5.000004
100
AcDbArc
 50
106.980700
 51
160.392819
  0
ARC
  5
3EA
100
AcDbEntity
  8
L
  6
CONTINUOUS
 62
     2
100
AcDbCircle
 10
-119.393965
 20
-111.761849
 40
5.000002
100
AcDbArc
 50
79.606649
 51
133.018704
  0
ARC
  5
3EB
100
AcDbEntity
  8
L
  6
CONTINUOUS
 62
     2
100
AcDbCircle
 10
-109.502719
 20
-94.629866
 40
5.000000
100
AcDbArc
 50
166.980659
 51
220.392844
  0
ARC
  5
3EC
100
AcDbEntity
  8
L
  6
CONTINUOUS
 62
     2
100
AcDbCircle
 10
-109.502752
 20
-79.370432
 40
4.999998
100
AcDbArc
 50
139.607311
 51
193.019447
  0
ARC
  5
3ED
100
AcDbEntity
  8
L
  6
CONTINUOUS
 62
     2
100
AcDbCircle
 10
-152.391058
 20
-119.391230
 40
5.000007
100
AcDbArc
 50
19.606693
 51
38.032410
  0
ARC
  5
3EE
100
AcDbEntity
  8
L
  6
CONTINUOUS
 62
     2
100
AcDbCircle
 10
-165.605633
 20
-111.761756
 40
5.000008
100
AcDbArc
 50
81.971056
 51
100.393017
  0
CIRCLE
  5
3EF
100
AcDbEntity
  8
L
  6
CONTINUOUS
 62
     2
100
AcDbCircle
 10
-117.499720
 20
-101.434128
 40
4.250005
  0
CIRCLE
  5
3F0
100
AcDbEntity
  8
L
  6
CONTINUOUS
 62
     2
100
AcDbCircle
 10
-142.499865
 20
-115.867838
 40
4.250005
  0
CIRCLE
  5
3F1
100
AcDbEntity
  8
L
  6
CONTINUOUS
 62
     2
100
AcDbCircle
 10
-167.499840
 20
-101.434028
 40
4.250005
  0
LINE
  5
3F2
100
AcDbEntity
  8
L
  6
CONTINUOUS
 62
     2
100
AcDbLine
 10
-161.474200
 20
-100.864515
 11
-167.727105
 21
-111.694870
  0
LINE
  5
3F3
100
AcDbEntity
  8
L
  6
CONTINUOUS
 62
     2
100
AcDbLine
 10
-151.272625
 20
-121.194870
 11
-145.019715
 21
-110.364515
  0
LINE
  5
3F4
100
AcDbEntity
  8
L
  6
CONTINUOUS
 62
     2
100
AcDbLine
 10
-167.727105
 20
-111.694870
 11
-151.272625
 21
-121.194870
  0
LINE
  5
3F5
100
AcDbEntity
  8
L
  6
BORDER
 62
     4
100
AcDbLine
 10
-164.419740
 20
-124.966340
 11
-136.737405
 21
-77.019135
  0
LINE
  5
3F6
100
AcDbEntity
  8
L
  6
CONTINUOUS
 62
     2
100
AcDbLine
 10
-162.530955
 20
-114.694870
 11
-157.149905
 21
-105.374615
  0
LINE
  5
3F7
100
AcDbEntity
  8
L
  6
CONTINUOUS
 62
     2
100
AcDbLine
 10
-156.468775
 20
-118.194870
 11
-151.087725
 21
-108.874615
  0
LINE
  5
3F8
100
AcDbEntity
  8
L
  6
CONTINUOUS
 62
     2
100
AcDbLine
 10
-144.809265
 20
-83.000005
 11
-140.190460
 21
-83.000005
  0
LINE
  5
3F9
100
AcDbEntity
  8
L
  6
CONTINUOUS
 62
     2
100
AcDbLine
 10
-140.190460
 20
-83.000005
 11
-137.881065
 21
-87.000005
  0
LINE
  5
3FA
100
AcDbEntity
  8
L
  6
CONTINUOUS
 62
     2
100
AcDbLine
 10
-137.881065
 20
-87.000005
 11
-140.190465
 21
-91.000005
  0
LINE
  5
3FB
100
AcDbEntity
  8
L
  6
CONTINUOUS
 62
     2
100
AcDbLine
 10
-140.190465
 20
-91.000005
 11
-144.809265
 21
-91.000005
  0
LINE
  5
3FC
100
AcDbEntity
  8
L
  6
CONTINUOUS
 62
     2
100
AcDbLine
 10
-144.809265
 20
-91.000005
 11
-147.118665
 21
-87.000005
  0
LINE
  5
3FD
100
AcDbEntity
  8
L
  6
CONTINUOUS
 62
     2
100
AcDbLine
 10
-147.118665
 20
-87.000005
 11
-144.809265
 21
-83.000005
  0
CIRCLE
  5
3FE
100
AcDbEntity
  8
L
  6
CONTINUOUS
 62
     2
100
AcDbCircle
 10
-142.499870
 20
-87.000013
 40
5.500005
  0
LINE
  5
3FF
100
AcDbEntity
  8
L
  6
BORDER
 62
     4
100
AcDbLine
 10
-190.022555
 20
-87.000215
 11
-96.923140
 21
-87.000215
  0
LINE
  5
400
100
AcDbEntity
  8
L
  6
BORDER
 62
     4
100
AcDbLine
 10
-142.499860
 20
-135.118655
 11
-142.499855
 21
-72.499960
  0
ARC
  5
401
100
AcDbEntity
  8
L
  6
BORDER
 62
     4
100
AcDbCircle
 10
-142.499749
 20
-87.000220
 40
28.867612
100
AcDbArc
 50
149.847582
 51
160.786529
  0
ARC
  5
402
100
AcDbEntity
  8
L
  6
BORDER
 62
     4
100
AcDbCircle
 10
-142.499749
 20
-87.000220
 40
28.867646
100
AcDbArc
 50
30.000478
 51
30.152379
  0
ARC
  5
403
100
AcDbEntity
  8
L
  6
BORDER
 62
     4
100
AcDbCircle
 10
-142.499749
 20
-87.000220
 40
28.867646
100
AcDbArc
 50
19.017059
 51
30.000478
  0
ARC
  5
404
100
AcDbEntity
  8
L
  6
CONTINUOUS
 62
     2
100
AcDbCircle
 10
-142.499749
 20
-87.000220
 40
28.867622
100
AcDbArc
 50
346.980750
 51
13.019501
  0
ARC
  5
405
100
AcDbEntity
  8
L
  6
BORDER
 62
     4
100
AcDbCircle
 10
-142.499749
 20
-87.000220
 40
28.867618
100
AcDbArc
 50
319.016360
 51
340.983192
  0
ARC
  5
406
100
AcDbEntity
  8
L
  6
CONTINUOUS
 62
     2
100
AcDbCircle
 10
-142.499749
 20
-87.000220
 40
28.867622
100
AcDbArc
 50
286.980756
 51
313.018805
  0
ARC
  5
407
100
AcDbEntity
  8
L
  6
BORDER
 62
     4
100
AcDbCircle
 10
-142.499749
 20
-87.000220
 40
28.867611
100
AcDbArc
 50
259.213023
 51
280.983196
  0
ARC
  5
408
100
AcDbEntity
  8
L
  6
BORDER
 62
     4
100
AcDbCircle
 10
-142.499749
 20
-87.000220
 40
28.867616
100
AcDbArc
 50
199.213448
 51
220.786098
  0
LINE
  5
409
100
AcDbEntity
  8
L
  6
CONTINUOUS
 62
     2
100
AcDbLine
 10
-176.499860
 20
-83.500215
 11
-165.737795
 21
-83.500215
  0
LINE
  5
40A
100
AcDbEntity
  8
L
  6
CONTINUOUS
 62
     2
100
AcDbLine
 10
-120.099770
 20
-72.499960
 11
-120.099775
 21
-73.166200
  0
LINE
  5
40B
100
AcDbEntity
  8
L
  6
CONTINUOUS
 62
     2
100
AcDbLine
 10
-120.099775
 20
-73.166200
 11
-118.099775
 21
-73.166200
  0
LINE
  5
40C
100
AcDbEntity
  8
L
  6
CONTINUOUS
 62
     2
100
AcDbLine
 10
-118.099775
 20
-73.166200
 11
-118.099775
 21
-75.166200
  0
LINE
  5
40D
100
AcDbEntity
  8
L
  6
CONTINUOUS
 62
     2
100
AcDbLine
 10
-118.099775
 20
-75.166200
 11
-116.899775
 21
-75.166200
  0
LINE
  5
40E
100
AcDbEntity
  8
L
  6
CONTINUOUS
 62
     2
100
AcDbLine
 10
-116.899775
 20
-75.166200
 11
-116.899775
 21
-73.166200
  0
LINE
  5
40F
100
AcDbEntity
  8
L
  6
CONTINUOUS
 62
     2
100
AcDbLine
 10
-116.899775
 20
-73.166200
 11
-114.899775
 21
-73.166200
  0
LINE
  5
410
100
AcDbEntity
  8
L
  6
CONTINUOUS
 62
     2
100
AcDbLine
 10
-114.899775
 20
-73.166200
 11
-114.899770
 21
-72.499960
  0
LINE
  5
411
100
AcDbEntity
  8
L
  6
CONTINUOUS
 62
     2
100
AcDbLine
 10
-120.099715
 20
-100.834125
 11
-120.099715
 21
-102.034125
  0
LINE
  5
412
100
AcDbEntity
  8
L
  6
CONTINUOUS
 62
     2
100
AcDbLine
 10
-120.099715
 20
-102.034125
 11
-118.099715
 21
-102.034125
  0
LINE
  5
413
100
AcDbEntity
  8
L
  6
CONTINUOUS
 62
     2
100
AcDbLine
 10
-118.099715
 20
-102.034125
 11
-118.099715
 21
-104.034125
  0
LINE
  5
414
100
AcDbEntity
  8
L
  6
CONTINUOUS
 62
     2
100
AcDbLine
 10
-118.099715
 20
-104.034125
 11
-116.899715
 21
-104.034125
  0
LINE
  5
415
100
AcDbEntity
  8
L
  6
CONTINUOUS
 62
     2
100
AcDbLine
 10
-116.899715
 20
-104.034125
 11
-116.899715
 21
-102.034125
  0
LINE
  5
416
100
AcDbEntity
  8
L
  6
CONTINUOUS
 62
     2
100
AcDbLine
 10
-116.899715
 20
-102.034125
 11
-114.899715
 21
-102.034125
  0
LINE
  5
417
100
AcDbEntity
  8
L
  6
CONTINUOUS
 62
     2
100
AcDbLine
 10
-114.899715
 20
-102.034125
 11
-114.899715
 21
-100.834125
  0
LINE
  5
418
100
AcDbEntity
  8
L
  6
CONTINUOUS
 62
     2
100
AcDbLine
 10
-114.899715
 20
-100.834125
 11
-116.899715
 21
-100.834125
  0
LINE
  5
419
100
AcDbEntity
  8
L
  6
CONTINUOUS
 62
     2
100
AcDbLine
 10
-116.899715
 20
-100.834125
 11
-116.899715
 21
-98.834125
  0
LINE
  5
41A
100
AcDbEntity
  8
L
  6
CONTINUOUS
 62
     2
100
AcDbLine
 10
-116.899715
 20
-98.834125
 11
-118.099715
 21
-98.834125
  0
LINE
  5
41B
100
AcDbEntity
  8
L
  6
CONTINUOUS
 62
     2
100
AcDbLine
 10
-118.099715
 20
-98.834125
 11
-118.099715
 21
-100.834125
  0
LINE
  5
41C
100
AcDbEntity
  8
L
  6
CONTINUOUS
 62
     2
100
AcDbLine
 10
-118.099715
 20
-100.834125
 11
-120.099715
 21
-100.834125
  0
LINE
  5
41D
100
AcDbEntity
  8
L
  6
CONTINUOUS
 62
     2
100
AcDbLine
 10
-170.099890
 20
-72.499960
 11
-170.099895
 21
-73.166510
  0
LINE
  5
41E
100
AcDbEntity
  8
L
  6
CONTINUOUS
 62
     2
100
AcDbLine
 10
-170.099895
 20
-73.166510
 11
-168.099895
 21
-73.166510
  0
LINE
  5
41F
100
AcDbEntity
  8
L
  6
CONTINUOUS
 62
     2
100
AcDbLine
 10
-168.099895
 20
-73.166510
 11
-168.099895
 21
-75.166510
  0
LINE
  5
420
100
AcDbEntity
  8
L
  6
CONTINUOUS
 62
     2
100
AcDbLine
 10
-168.099895
 20
-75.166510
 11
-166.899895
 21
-75.166510
  0
LINE
  5
421
100
AcDbEntity
  8
L
  6
CONTINUOUS
 62
     2
100
AcDbLine
 10
-166.899895
 20
-75.166510
 11
-166.899895
 21
-73.166510
  0
LINE
  5
422
100
AcDbEntity
  8
L
  6
CONTINUOUS
 62
     2
100
AcDbLine
 10
-166.899895
 20
-73.166510
 11
-164.899895
 21
-73.166510
  0
LINE
  5
423
100
AcDbEntity
  8
L
  6
CONTINUOUS
 62
     2
100
AcDbLine
 10
-164.899895
 20
-73.166510
 11
-164.899890
 21
-72.499960
  0
LINE
  5
424
100
AcDbEntity
  8
L
  6
CONTINUOUS
 62
     2
100
AcDbLine
 10
-170.099835
 20
-100.834025
 11
-170.099835
 21
-102.034025
  0
LINE
  5
425
100
AcDbEntity
  8
L
  6
CONTINUOUS
 62
     2
100
AcDbLine
 10
-170.099835
 20
-102.034025
 11
-168.099835
 21
-102.034025
  0
LINE
  5
426
100
AcDbEntity
  8
L
  6
CONTINUOUS
 62
     2
100
AcDbLine
 10
-168.099835
 20
-102.034025
 11
-168.099835
 21
-104.034025
  0
LINE
  5
427
100
AcDbEntity
  8
L
  6
CONTINUOUS
 62
     2
100
AcDbLine
 10
-168.099835
 20
-104.034025
 11
-166.899835
 21
-104.034025
  0
LINE
  5
428
100
AcDbEntity
  8
L
  6
CONTINUOUS
 62
     2
100
AcDbLine
 10
-166.899835
 20
-104.034025
 11
-166.899835
 21
-102.034025
  0
LINE
  5
429
100
AcDbEntity
  8
L
  6
CONTINUOUS
 62
     2
100
AcDbLine
 10
-166.899835
 20
-102.034025
 11
-164.899835
 21
-102.034025
  0
LINE
  5
42A
100
AcDbEntity
  8
L
  6
CONTINUOUS
 62
     2
100
AcDbLine
 10
-164.899835
 20
-102.034025
 11
-164.899835
 21
-100.834025
  0
LINE
  5
42B
100
AcDbEntity
  8
L
  6
CONTINUOUS
 62
     2
100
AcDbLine
 10
-164.899835
 20
-100.834025
 11
-166.899835
 21
-100.834025
  0
LINE
  5
42C
100
AcDbEntity
  8
L
  6
CONTINUOUS
 62
     2
100
AcDbLine
 10
-166.899835
 20
-100.834025
 11
-166.899835
 21
-98.834025
  0
LINE
  5
42D
100
AcDbEntity
  8
L
  6
CONTINUOUS
 62
     2
100
AcDbLine
 10
-166.899835
 20
-98.834025
 11
-168.099835
 21
-98.834025
  0
LINE
  5
42E
100
AcDbEntity
  8
L
  6
CONTINUOUS
 62
     2
100
AcDbLine
 10
-168.099835
 20
-98.834025
 11
-168.099835
 21
-100.834025
  0
LINE
  5
42F
100
AcDbEntity
  8
L
  6
CONTINUOUS
 62
     2
100
AcDbLine
 10
-168.099835
 20
-100.834025
 11
-170.099835
 21
-100.834025
  0
LINE
  5
430
100
AcDbEntity
  8
L
  6
CONTINUOUS
 62
     2
100
AcDbLine
 10
-145.099860
 20
-115.267835
 11
-145.099860
 21
-116.467835
  0
LINE
  5
431
100
AcDbEntity
  8
L
  6
CONTINUOUS
 62
     2
100
AcDbLine
 10
-145.099860
 20
-116.467835
 11
-143.099860
 21
-116.467835
  0
LINE
  5
432
100
AcDbEntity
  8
L
  6
CONTINUOUS
 62
     2
100
AcDbLine
 10
-143.099860
 20
-116.467835
 11
-143.099860
 21
-118.467835
  0
LINE
  5
433
100
AcDbEntity
  8
L
  6
CONTINUOUS
 62
     2
100
AcDbLine
 10
-143.099860
 20
-118.467835
 11
-141.899860
 21
-118.467835
  0
LINE
  5
434
100
AcDbEntity
  8
L
  6
CONTINUOUS
 62
     2
100
AcDbLine
 10
-141.899860
 20
-118.467835
 11
-141.899860
 21
-116.467835
  0
LINE
  5
435
100
AcDbEntity
  8
L
  6
CONTINUOUS
 62
     2
100
AcDbLine
 10
-141.899860
 20
-116.467835
 11
-139.899860
 21
-116.467835
  0
LINE
  5
436
100
AcDbEntity
  8
L
  6
CONTINUOUS
 62
     2
100
AcDbLine
 10
-139.899860
 20
-116.467835
 11
-139.899860
 21
-115.267835
  0
LINE
  5
437
100
AcDbEntity
  8
L
  6
CONTINUOUS
 62
     2
100
AcDbLine
 10
-139.899860
 20
-115.267835
 11
-141.899860
 21
-115.267835
  0
LINE
  5
438
100
AcDbEntity
  8
L
  6
CONTINUOUS
 62
     2
100
AcDbLine
 10
-141.899860
 20
-115.267835
 11
-141.899860
 21
-113.267835
  0
LINE
  5
439
100
AcDbEntity
  8
L
  6
CONTINUOUS
 62
     2
100
AcDbLine
 10
-141.899860
 20
-113.267835
 11
-143.099860
 21
-113.267835
  0
LINE
  5
43A
100
AcDbEntity
  8
L
  6
CONTINUOUS
 62
     2
100
AcDbLine
 10
-143.099860
 20
-113.267835
 11
-143.099860
 21
-115.267835
  0
LINE
  5
43B
100
AcDbEntity
  8
L
  6
CONTINUOUS
 62
     2
100
AcDbLine
 10
-143.099860
 20
-115.267835
 11
-145.099860
 21
-115.267835
  0
LINE
  5
43C
100
AcDbEntity
  8
L
  6
CONTINUOUS
 62
     2
100
AcDbLine
 10
-148.267715
 20
-73.009775
 11
-144.517810
 21
-79.504815
  0
LINE
  5
43D
100
AcDbEntity
  8
L
  6
CONTINUOUS
 62
     2
100
AcDbLine
 10
-151.731820
 20
-75.009775
 11
-147.981915
 21
-81.504815
  0
ARC
  5
43E
100
AcDbEntity
  8
L
  6
CONTINUOUS
 62
     2
100
AcDbCircle
 10
-146.249870
 20
-80.504822
 40
2.000011
100
AcDbArc
 50
209.999908
 51
30.000044
  0
LINE
  5
43F
100
AcDbEntity
  8
L
  6
CONTINUOUS
 62
     2
100
AcDbLine
 10
-144.517810
 20
-94.495195
 11
-148.267895
 21
-100.990545
  0
LINE
  5
440
100
AcDbEntity
  8
L
  6
CONTINUOUS
 62
     2
100
AcDbLine
 10
-147.981915
 20
-92.495195
 11
-151.732005
 21
-98.990540
  0
ARC
  5
441
100
AcDbEntity
  8
L
  6
CONTINUOUS
 62
     2
100
AcDbCircle
 10
-146.249870
 20
-93.495201
 40
1.999998
100
AcDbArc
 50
330.000282
 51
149.999767
  0
LINE
  5
442
100
AcDbEntity
  8
L
  6
CONTINUOUS
 62
     2
100
AcDbLine
 10
-172.999885
 20
-74.749980
 11
-172.999885
 21
-77.500215
  0
LINE
  5
443
100
AcDbEntity
  8
L
  6
CONTINUOUS
 62
     2
100
AcDbLine
 10
-172.999845
 20
-96.500215
 11
-172.999835
 21
-101.434035
  0
ARC
  5
444
100
AcDbEntity
  8
L
  6
CONTINUOUS
 62
     2
100
AcDbCircle
 10
-142.499870
 20
-87.000013
 40
23.500011
100
AcDbArc
 50
141.900907
 51
38.099079
  0
ARC
  5
445
100
AcDbEntity
  8
L
  6
CONTINUOUS
 62
     2
100
AcDbCircle
 10
-167.499900
 20
-72.566513
 40
4.250011
100
AcDbArc
 50
179.102743
 51
0.897255
  0
ARC
  5
446
100
AcDbEntity
  8
L
  6
CONTINUOUS
 62
     2
100
AcDbCircle
 10
-142.499865
 20
-87.000218
 40
17.000014
100
AcDbArc
 50
121.465389
 51
58.534584
  0
ARC
  5
447
100
AcDbEntity
  8
L
  6
CONTINUOUS
 62
     2
100
AcDbCircle
 10
-117.499780
 20
-72.566203
 40
4.250011
100
AcDbArc
 50
179.106923
 51
0.893075
  0
LINE
  5
448
100
AcDbEntity
  8
L
  6
CONTINUOUS
 62
     2
100
AcDbLine
 10
-102.499875
 20
-72.040745
 11
-102.499875
 21
-109.400220
  0
ARC
  5
449
100
AcDbEntity
  8
L
  6
CONTINUOUS
 62
     2
100
AcDbCircle
 10
-104.099875
 20
-109.400222
 40
1.599998
100
AcDbArc
 50
269.999985
 51
0.000085
  0
LINE
  5
44A
100
AcDbEntity
  8
L
  6
CONTINUOUS
 62
     2
100
AcDbLine
 10
-104.099875
 20
-111.000220
 11
-109.499875
 21
-111.000220
  0
LINE
  5
44B
100
AcDbEntity
  8
L
  6
CONTINUOUS
 62
     2
100
AcDbLine
 10
-109.499875
 20
-111.000220
 11
-109.499870
 21
-72.400225
  0
ARC
  5
44C
100
AcDbEntity
  8
L
  6
CONTINUOUS
 62
     2
100
AcDbCircle
 10
-111.099875
 20
-72.400222
 40
1.600003
100
AcDbArc
 50
269.999985
 51
359.999906
  0
LINE
  5
44D
100
AcDbEntity
  8
L
  6
CONTINUOUS
 62
     2
100
AcDbLine
 10
-111.999780
 20
-74.000225
 11
-111.099875
 21
-74.000225
  0
LINE
  5
44E
100
AcDbEntity
  8
L
  6
CONTINUOUS
 62
     2
100
AcDbLine
 10
-111.999785
 20
-72.566200
 11
-111.999725
 21
-101.434120
  0
ARC
  5
44F
100
AcDbEntity
  8
L
  6
CONTINUOUS
 62
     2
100
AcDbCircle
 10
-111.099875
 20
-101.600222
 40
1.600000
100
AcDbArc
 50
0.000085
 51
90.000015
  0
LINE
  5
450
100
AcDbEntity
  8
L
  6
CONTINUOUS
 62
     2
100
AcDbLine
 10
-111.999730
 20
-100.000220
 11
-111.099875
 21
-100.000220
  0
ENDBLK
  5
451
100
AcDbEntity
  8
0
100
AcDbBlockEnd
  0
BLOCK
  5
452
100
AcDbEntity
  8
L
100
AcDbBlockBegin
  2
B-15
 70
    66
 10
0.000000
 20
0.000000
 30
0.000000
  0
ARC
  5
453
100
AcDbEntity
  8
L
  6
CONTINUOUS
 62
     2
100
AcDbCircle
 10
-199.810610
 20
51.172620
 40
22.499996
100
AcDbArc
 50
88.191610
 51
246.174376
  0
ARC
  5
454
100
AcDbEntity
  8
L
  6
CONTINUOUS
 62
     2
100
AcDbCircle
 10
-199.810610
 20
51.172620
 40
25.499995
100
AcDbArc
 50
81.226858
 51
249.118862
  0
LINE
  5
455
100
AcDbEntity
  8
L
  6
BORDER
 62
     4
100
AcDbLine
 10
-210.899590
 20
51.172610
 11
-231.343415
 21
51.172620
  0
LINE
  5
456
100
AcDbEntity
  8
L
  6
BORDER
 62
     4
100
AcDbLine
 10
-199.810610
 20
73.055545
 11
-199.810610
 21
81.553205
  0
ENDBLK
  5
457
100
AcDbEntity
  8
0
100
AcDbBlockEnd
  0
BLOCK
  5
458
100
AcDbEntity
  8
L
100
AcDbBlockBegin
  2
B-16
 70
    66
 10
0.000000
 20
0.000000
 30
0.000000
  0
LINE
  5
459
100
AcDbEntity
  8
L
  6
CONTINUOUS
 62
     2
100
AcDbLine
 10
-81.699995
 20
70.199995
 11
-81.699995
 21
36.699995
  0
LINE
  5
45A
100
AcDbEntity
  8
L
  6
CONTINUOUS
 62
     2
100
AcDbLine
 10
-81.699995
 20
23.699995
 11
-81.699995
 21
-13.500000
  0
LINE
  5
45B
100
AcDbEntity
  8
L
  6
CONTINUOUS
 62
     2
100
AcDbLine
 10
-81.699995
 20
-13.500000
 11
-81.400880
 21
-13.500000
  0
LINE
  5
45C
100
AcDbEntity
  8
L
  6
CONTINUOUS
 62
     2
100
AcDbLine
 10
-72.357490
 20
-13.499995
 11
-68.750000
 21
-13.499995
  0
LINE
  5
45D
100
AcDbEntity
  8
L
  6
CONTINUOUS
 62
     2
100
AcDbLine
 10
-68.699995
 20
-3.999985
 11
-68.699995
 21
23.690950
  0
LINE
  5
45E
100
AcDbEntity
  8
L
  6
CONTINUOUS
 62
     2
100
AcDbLine
 10
-68.699995
 20
36.699995
 11
-68.699995
 21
68.915715
  0
LINE
  5
45F
100
AcDbEntity
  8
L
  6
CONTINUOUS
 62
     2
100
AcDbLine
 10
-69.984265
 20
70.199985
 11
-81.699995
 21
70.199995
  0
LINE
  5
460
100
AcDbEntity
  8
L
  6
BORDER
 62
     4
100
AcDbLine
 10
-65.699995
 20
61.199985
 11
-88.699995
 21
61.199985
  0
LINE
  5
461
100
AcDbEntity
  8
L
  6
BORDER
 62
     4
100
AcDbLine
 10
-83.214125
 20
23.999995
 11
-103.689600
 21
23.999990
  0
LINE
  5
462
100
AcDbEntity
  8
L
  6
BORDER
 62
     4
100
AcDbLine
 10
-65.699995
 20
-4.499995
 11
-71.885820
 21
-4.499995
  0
LINE
  5
463
100
AcDbEntity
  8
L
  6
BORDER
 62
     4
100
AcDbLine
 10
-80.534275
 20
-4.499995
 11
-88.699995
 21
-4.499995
  0
LINE
  5
464
100
AcDbEntity
  8
L
  6
BORDER
 62
     4
100
AcDbLine
 10
-65.699995
 20
19.499995
 11
-70.628035
 21
19.499995
  0
LINE
  5
465
100
AcDbEntity
  8
L
  6
BORDER
 62
     4
100
AcDbLine
 10
-78.223340
 20
19.499995
 11
-88.699995
 21
19.499995
  0
LINE
  5
466
100
AcDbEntity
  8
L
  6
CONTINUOUS
 62
     2
100
AcDbLine
 10
-68.699995
 20
10.235190
 11
-71.113585
 21
10.235190
  0
LINE
  5
467
100
AcDbEntity
  8
L
  6
CONTINUOUS
 62
     2
100
AcDbLine
 10
-79.115440
 20
10.235190
 11
-81.699995
 21
10.235190
  0
ENDBLK
  5
468
100
AcDbEntity
  8
0
100
AcDbBlockEnd
  0
BLOCK
  5
469
100
AcDbEntity
  8
L
100
AcDbBlockBegin
  2
B-17
 70
    66
 10
0.000000
 20
0.000000
 30
0.000000
  0
ARC
  5
46A
100
AcDbEntity
  8
L
  6
CONTINUOUS
 62
     2
100
AcDbCircle
 10
-217.550309
 20
-13.997334
 40
4.349876
100
AcDbArc
 50
244.292949
 51
270.000059
  0
ARC
  5
46B
100
AcDbEntity
  8
L
  6
CONTINUOUS
 62
     2
100
AcDbCircle
 10
-216.722914
 20
-12.278678
 40
6.257326
100
AcDbArc
 50
224.928302
 51
244.292938
  0
ARC
  5
46C
100
AcDbEntity
  8
L
  6
CONTINUOUS
 62
     2
100
AcDbCircle
 10
-215.453347
 20
-11.012283
 40
8.050524
100
AcDbArc
 50
211.731167
 51
224.928308
  0
ARC
  5
46D
100
AcDbEntity
  8
L
  6
CONTINUOUS
 62
     2
100
AcDbCircle
 10
-212.551065
 20
-9.217612
 40
11.462869
100
AcDbArc
 50
202.449333
 51
211.731181
  0
ARC
  5
46E
100
AcDbEntity
  8
L
  6
CONTINUOUS
 62
     2
100
AcDbCircle
 10
-210.759064
 20
-8.477196
 40
13.401807
100
AcDbArc
 50
189.711720
 51
202.449337
  0
ARC
  5
46F
100
AcDbEntity
  8
L
  6
CONTINUOUS
 62
     2
100
AcDbCircle
 10
-207.970559
 20
-7.999959
 40
16.230856
100
AcDbArc
 50
179.999968
 51
189.711725
  0
ARC
  5
470
100
AcDbEntity
  8
L
  6
CONTINUOUS
 62
     2
100
AcDbCircle
 10
-207.970559
 20
-7.999959
 40
16.230859
100
AcDbArc
 50
170.288211
 51
179.999968
  0
ARC
  5
471
100
AcDbEntity
  8
L
  6
CONTINUOUS
 62
     2
100
AcDbCircle
 10
-210.759064
 20
-7.522723
 40
13.401814
100
AcDbArc
 50
157.550590
 51
170.288202
  0
ARC
  5
472
100
AcDbEntity
  8
L
  6
CONTINUOUS
 62
     2
100
AcDbCircle
 10
-212.349155
 20
-6.865732
 40
11.681342
100
AcDbArc
 50
151.699053
 51
157.550584
  0
ARC
  5
473
100
AcDbEntity
  8
L
  6
CONTINUOUS
 62
     2
100
AcDbCircle
 10
-214.262920
 20
-5.835236
 40
9.507769
100
AcDbArc
 50
144.410669
 51
151.699042
  0
ARC
  5
474
100
AcDbEntity
  8
L
  6
CONTINUOUS
 62
     2
100
AcDbCircle
 10
-215.048508
 20
-5.273033
 40
8.541734
100
AcDbArc
 50
138.456960
 51
144.410661
  0
ARC
  5
475
100
AcDbEntity
  8
L
  6
CONTINUOUS
 62
     2
100
AcDbCircle
 10
-216.185327
 20
-4.265739
 40
7.022852
100
AcDbArc
 50
131.376868
 51
138.456953
  0
ARC
  5
476
100
AcDbEntity
  8
L
  6
CONTINUOUS
 62
     2
100
AcDbCircle
 10
-216.658842
 20
-3.728205
 40
6.306501
100
AcDbArc
 50
122.963647
 51
131.376862
  0
ARC
  5
477
100
AcDbEntity
  8
L
  6
CONTINUOUS
 62
     2
100
AcDbCircle
 10
-217.289125
 20
-2.756305
 40
5.148124
100
AcDbArc
 50
113.110640
 51
122.963637
  0
ARC
  5
478
100
AcDbEntity
  8
L
  6
CONTINUOUS
 62
     2
100
AcDbCircle
 10
-217.461227
 20
-2.353027
 40
4.709660
100
AcDbArc
 50
101.955469
 51
113.110632
  0
ARC
  5
479
100
AcDbEntity
  8
L
  6
CONTINUOUS
 62
     2
100
AcDbCircle
 10
-217.550309
 20
-1.932323
 40
4.279628
100
AcDbArc
 50
89.999940
 51
101.955464
  0
ARC
  5
47A
100
AcDbEntity
  8
L
  6
CONTINUOUS
 62
     2
100
AcDbCircle
 10
-217.550309
 20
-2.002584
 40
4.349892
100
AcDbArc
 50
64.292918
 51
89.999941
  0
ARC
  5
47B
100
AcDbEntity
  8
L
  6
CONTINUOUS
 62
     2
100
AcDbCircle
 10
-218.377705
 20
-3.721241
 40
6.257342
100
AcDbArc
 50
44.928331
 51
64.292917
  0
ARC
  5
47C
100
AcDbEntity
  8
L
  6
CONTINUOUS
 62
     2
100
AcDbCircle
 10
-219.647272
 20
-4.987636
 40
8.050541
100
AcDbArc
 50
31.731244
 51
44.928330
  0
ARC
  5
47D
100
AcDbEntity
  8
L
  6
CONTINUOUS
 62
     2
100
AcDbCircle
 10
-222.549554
 20
-6.782307
 40
11.462885
100
AcDbArc
 50
22.449400
 51
31.731235
  0
ARC
  5
47E
100
AcDbEntity
  8
L
  6
CONTINUOUS
 62
     2
100
AcDbCircle
 10
-224.341555
 20
-7.522723
 40
13.401819
100
AcDbArc
 50
9.711791
 51
22.449395
  0
ARC
  5
47F
100
AcDbEntity
  8
L
  6
CONTINUOUS
 62
     2
100
AcDbCircle
 10
-227.130060
 20
-7.999959
 40
16.230870
100
AcDbArc
 50
0.000032
 51
9.711784
  0
ARC
  5
480
100
AcDbEntity
  8
L
  6
CONTINUOUS
 62
     2
100
AcDbCircle
 10
-227.130060
 20
-7.999959
 40
16.230870
100
AcDbArc
 50
350.288280
 51
0.000032
  0
ARC
  5
481
100
AcDbEntity
  8
L
  6
CONTINUOUS
 62
     2
100
AcDbCircle
 10
-224.341555
 20
-8.477196
 40
13.401821
100
AcDbArc
 50
337.550677
 51
350.288286
  0
ARC
  5
482
100
AcDbEntity
  8
L
  6
CONTINUOUS
 62
     2
100
AcDbCircle
 10
-222.751464
 20
-9.134187
 40
11.681349
100
AcDbArc
 50
331.699152
 51
337.550683
  0
ARC
  5
483
100
AcDbEntity
  8
L
  6
CONTINUOUS
 62
     2
100
AcDbCircle
 10
-220.837699
 20
-10.164682
 40
9.507776
100
AcDbArc
 50
324.410790
 51
331.699164
  0
ARC
  5
484
100
AcDbEntity
  8
L
  6
CONTINUOUS
 62
     2
100
AcDbCircle
 10
-220.052111
 20
-10.726885
 40
8.541743
100
AcDbArc
 50
318.457067
 51
324.410796
  0
ARC
  5
485
100
AcDbEntity
  8
L
  6
CONTINUOUS
 62
     2
100
AcDbCircle
 10
-218.915292
 20
-11.734180
 40
7.022862
100
AcDbArc
 50
311.376995
 51
318.457083
  0
ARC
  5
486
100
AcDbEntity
  8
L
  6
CONTINUOUS
 62
     2
100
AcDbCircle
 10
-218.441777
 20
-12.271713
 40
6.306511
100
AcDbArc
 50
302.963781
 51
311.377004
  0
ARC
  5
487
100
AcDbEntity
  8
L
  6
CONTINUOUS
 62
     2
100
AcDbCircle
 10
-217.811494
 20
-13.243613
 40
5.148130
100
AcDbArc
 50
293.110790
 51
302.963801
  0
ARC
  5
488
100
AcDbEntity
  8
L
  6
CONTINUOUS
 62
     2
100
AcDbCircle
 10
-217.639392
 20
-13.646891
 40
4.709664
100
AcDbArc
 50
281.955610
 51
293.110796
  0
ARC
  5
489
100
AcDbEntity
  8
L
  6
CONTINUOUS
 62
     2
100
AcDbCircle
 10
-217.550309
 20
-14.067595
 40
4.279632
100
AcDbArc
 50
270.000060
 51
281.955618
  0
ARC
  5
48A
100
AcDbEntity
  8
L
  6
CONTINUOUS
 62
     2
100
AcDbCircle
 10
-216.041489
 20
-14.955310
 40
5.044636
100
AcDbArc
 50
244.292777
 51
270.000051
  0
ARC
  5
48B
100
AcDbEntity
  8
L
  6
CONTINUOUS
 62
     2
100
AcDbCircle
 10
-215.081921
 20
-12.962119
 40
7.256781
100
AcDbArc
 50
224.928105
 51
244.292772
  0
ARC
  5
48C
100
AcDbEntity
  8
L
  6
CONTINUOUS
 62
     2
100
AcDbCircle
 10
-213.609549
 20
-11.493436
 40
9.336427
100
AcDbArc
 50
211.730995
 51
224.928112
  0
ARC
  5
48D
100
AcDbEntity
  8
L
  6
CONTINUOUS
 62
     2
100
AcDbCircle
 10
-210.243660
 20
-9.412101
 40
13.293846
100
AcDbArc
 50
209.295154
 51
211.731008
  0
ARC
  5
48E
100
AcDbEntity
  8
L
  6
CONTINUOUS
 62
     2
100
AcDbCircle
 10
-212.228964
 20
-5.489472
 40
11.026444
100
AcDbArc
 50
144.410895
 51
150.825905
  0
ARC
  5
48F
100
AcDbEntity
  8
L
  6
CONTINUOUS
 62
     2
100
AcDbCircle
 10
-213.140041
 20
-4.837468
 40
9.906100
100
AcDbArc
 50
138.457149
 51
144.410892
  0
ARC
  5
490
100
AcDbEntity
  8
L
  6
CONTINUOUS
 62
     2
100
AcDbCircle
 10
-214.458457
 20
-3.669274
 40
8.144598
100
AcDbArc
 50
131.377061
 51
138.457141
  0
ARC
  5
491
100
AcDbEntity
  8
L
  6
CONTINUOUS
 62
     2
100
AcDbCircle
 10
-215.007613
 20
-3.045877
 40
7.313817
100
AcDbArc
 50
122.963826
 51
131.377055
  0
ARC
  5
492
100
AcDbEntity
  8
L
  6
CONTINUOUS
 62
     2
100
AcDbCircle
 10
-215.738582
 20
-1.918728
 40
5.970397
100
AcDbArc
 50
113.110796
 51
122.963817
  0
ARC
  5
493
100
AcDbEntity
  8
L
  6
CONTINUOUS
 62
     2
100
AcDbCircle
 10
-215.938177
 20
-1.451030
 40
5.461892
100
AcDbArc
 50
101.955574
 51
113.110790
  0
ARC
  5
494
100
AcDbEntity
  8
L
  6
CONTINUOUS
 62
     2
100
AcDbCircle
 10
-216.041489
 20
-0.963123
 40
4.963168
100
AcDbArc
 50
89.999948
 51
101.955570
  0
ARC
  5
495
100
AcDbEntity
  8
L
  6
CONTINUOUS
 62
     2
100
AcDbCircle
 10
-216.041489
 20
-1.044608
 40
5.044652
100
AcDbArc
 50
64.292750
 51
89.999949
  0
ARC
  5
496
100
AcDbEntity
  8
L
  6
CONTINUOUS
 62
     2
100
AcDbCircle
 10
-217.001058
 20
-3.037799
 40
7.256797
100
AcDbArc
 50
44.928129
 51
64.292753
  0
ARC
  5
497
100
AcDbEntity
  8
L
  6
CONTINUOUS
 62
     2
100
AcDbCircle
 10
-218.473430
 20
-4.506482
 40
9.336434
100
AcDbArc
 50
37.299049
 51
44.928130
  0
ARC
  5
498
100
AcDbEntity
  8
L
  6
CONTINUOUS
 62
     2
100
AcDbCircle
 10
-223.917560
 20
-7.446497
 40
15.542513
100
AcDbArc
 50
14.927685
 51
22.449256
  0
ARC
  5
499
100
AcDbEntity
  8
L
  6
CONTINUOUS
 62
     2
100
AcDbCircle
 10
-223.917560
 20
-8.553421
 40
15.542505
100
AcDbArc
 50
337.550807
 51
345.072416
  0
ARC
  5
49A
100
AcDbEntity
  8
L
  6
CONTINUOUS
 62
     2
100
AcDbCircle
 10
-218.942938
 20
-11.162451
 40
9.906098
100
AcDbArc
 50
318.457241
 51
322.827901
  0
ARC
  5
49B
100
AcDbEntity
  8
L
  6
CONTINUOUS
 62
     2
100
AcDbCircle
 10
-217.624522
 20
-12.330645
 40
8.144593
100
AcDbArc
 50
311.377171
 51
318.457253
  0
ARC
  5
49C
100
AcDbEntity
  8
L
  6
CONTINUOUS
 62
     2
100
AcDbCircle
 10
-217.075366
 20
-12.954041
 40
7.313811
100
AcDbArc
 50
302.963942
 51
311.377177
  0
ARC
  5
49D
100
AcDbEntity
  8
L
  6
CONTINUOUS
 62
     2
100
AcDbCircle
 10
-216.344397
 20
-14.081190
 40
5.970388
100
AcDbArc
 50
293.110925
 51
302.963959
  0
ARC
  5
49E
100
AcDbEntity
  8
L
  6
CONTINUOUS
 62
     2
100
AcDbCircle
 10
-216.144802
 20
-14.548888
 40
5.461881
100
AcDbArc
 50
281.955695
 51
293.110931
  0
ARC
  5
49F
100
AcDbEntity
  8
L
  6
CONTINUOUS
 62
     2
100
AcDbCircle
 10
-216.041489
 20
-15.036795
 40
4.963155
100
AcDbArc
 50
270.000052
 51
281.955704
  0
ARC
  5
4A0
100
AcDbEntity
  8
L
  6
CONTINUOUS
 62
     2
100
AcDbCircle
 10
-204.682580
 20
5.998965
 40
7.999990
100
AcDbArc
 50
217.299028
 51
238.188547
  0
ARC
  5
4A1
100
AcDbEntity
  8
L
  6
CONTINUOUS
 62
     2
100
AcDbCircle
 10
-204.682580
 20
-21.998884
 40
8.000006
100
AcDbArc
 50
121.811384
 51
142.700897
  0
LINE
  5
4A2
100
AcDbEntity
  8
L
  6
BORDER
 62
     4
100
AcDbLine
 10
-218.947955
 20
1.000045
 11
-218.947955
 21
-16.999950
  0
LINE
  5
4A3
100
AcDbEntity
  8
L
  6
CONTINUOUS
 62
     2
100
AcDbLine
 10
-211.046445
 20
-17.151075
 11
-211.049520
 21
-17.147825
  0
LINE
  5
4A4
100
AcDbEntity
  8
L
  6
BORDER
 62
     4
100
AcDbLine
 10
-233.517570
 20
-7.999980
 11
-208.899580
 21
-7.999975
  0
ENDBLK
  5
4A5
100
AcDbEntity
  8
0
100
AcDbBlockEnd
  0
BLOCK
  5
4A6
100
AcDbEntity
  8
L
100
AcDbBlockBegin
  2
B-18
 70
    66
 10
0.000000
 20
0.000000
 30
0.000000
  0
LINE
  5
4A7
100
AcDbEntity
  8
L
  6
BORDER
 62
     4
100
AcDbLine
 10
77.999983
 20
-49.735369
 11
77.999993
 21
-59.999999
  0
LINE
  5
4A8
100
AcDbEntity
  8
L
  6
BORDER
 62
     4
100
AcDbLine
 10
81.199293
 20
-51.999984
 11
69.999993
 21
-51.999999
  0
LINE
  5
4A9
100
AcDbEntity
  8
L
  6
BORDER
 62
     4
100
AcDbLine
 10
77.999993
 20
53.999996
 11
77.999993
 21
41.735431
  0
LINE
  5
4AA
100
AcDbEntity
  8
L
  6
BORDER
 62
     4
100
AcDbLine
 10
81.300003
 20
45.999996
 11
69.999993
 21
45.999996
  0
LINE
  5
4AB
100
AcDbEntity
  8
L
  6
CONTINUOUS
 62
     2
100
AcDbLine
 10
68.749998
 20
-84.000004
 11
68.749993
 21
64.965726
  0
LINE
  5
4AC
100
AcDbEntity
  8
L
  6
CONTINUOUS
 62
     2
100
AcDbLine
 10
81.300003
 20
-61.088064
 11
68.749998
 21
-82.825324
  0
LINE
  5
4AD
100
AcDbEntity
  8
L
  6
CONTINUOUS
 62
     2
100
AcDbLine
 10
68.749998
 20
54.999996
 11
80.180068
 21
53.999996
  0
LINE
  5
4AE
100
AcDbEntity
  8
L
  6
CONTINUOUS
 62
     2
100
AcDbLine
 10
52.499998
 20
-85.000004
 11
52.499998
 21
-86.250004
  0
LINE
  5
4AF
100
AcDbEntity
  8
L
  6
CONTINUOUS
 62
     2
100
AcDbLine
 10
52.499998
 20
-86.250004
 11
66.499998
 21
-86.250004
  0
ARC
  5
4B0
100
AcDbEntity
  8
L
  6
CONTINUOUS
 62
     2
100
AcDbCircle
 10
66.499998
 20
-84.000004
 40
2.250000
100
AcDbArc
 50
270.000000
 51
0.000000
  0
LINE
  5
4B1
100
AcDbEntity
  8
L
  6
CONTINUOUS
 62
     2
100
AcDbLine
 10
90.189813
 20
85.749996
 11
111.999998
 21
85.749996
  0
LINE
  5
4B2
100
AcDbEntity
  8
L
  6
CONTINUOUS
 62
     2
100
AcDbLine
 10
111.999998
 20
85.749996
 11
111.999998
 21
86.999996
  0
LINE
  5
4B3
100
AcDbEntity
  8
L
  6
CONTINUOUS
 62
     2
100
AcDbLine
 10
111.999998
 20
86.999996
 11
91.995318
 21
86.999996
  0
LINE
  5
4B4
100
AcDbEntity
  8
L
  6
BORDER
 62
     4
100
AcDbLine
 10
101.099998
 20
80.749996
 11
101.099993
 21
91.412601
  0
LINE
  5
4B5
100
AcDbEntity
  8
L
  6
BORDER
 62
     4
100
AcDbLine
 10
59.999993
 20
-94.158454
 11
59.999998
 21
-80.000004
  0
ENDBLK
  5
4B6
100
AcDbEntity
  8
0
100
AcDbBlockEnd
  0
BLOCK
  5
4B7
100
AcDbEntity
  8
L
100
AcDbBlockBegin
  2
B-19
 70
    66
 10
0.000000
 20
0.000000
 30
0.000000
  0
LINE
  5
4B8
100
AcDbEntity
  8
L
  6
CONTINUOUS
 62
     2
100
AcDbLine
 10
68.749985
 20
35.000035
 11
69.300000
 21
35.000035
  0
LINE
  5
4B9
100
AcDbEntity
  8
L
  6
CONTINUOUS
 62
     2
100
AcDbLine
 10
69.300000
 20
-42.999960
 11
68.749990
 21
-42.999960
  0
ENDBLK
  5
4BA
100
AcDbEntity
  8
0
100
AcDbBlockEnd
  0
BLOCK
  5
4BB
100
AcDbEntity
  8
L
100
AcDbBlockBegin
  2
B-20
 70
    66
 10
0.000000
 20
0.000000
 30
0.000000
  0
LINE
  5
4BC
100
AcDbEntity
  8
L
  6
CONTINUOUS
 62
     2
100
AcDbLine
 10
54.999995
 20
-86.750000
 11
54.999995
 21
-92.150000
  0
ARC
  5
4BD
100
AcDbEntity
  8
L
  6
CONTINUOUS
 62
     2
100
AcDbCircle
 10
55.599995
 20
-92.150000
 40
0.600000
100
AcDbArc
 50
180.000000
 51
270.000000
  0
LINE
  5
4BE
100
AcDbEntity
  8
L
  6
CONTINUOUS
 62
     2
100
AcDbLine
 10
55.599995
 20
-92.750000
 11
64.399995
 21
-92.750000
  0
ARC
  5
4BF
100
AcDbEntity
  8
L
  6
CONTINUOUS
 62
     2
100
AcDbCircle
 10
64.399995
 20
-92.150000
 40
0.600000
100
AcDbArc
 50
270.000000
 51
0.000000
  0
LINE
  5
4C0
100
AcDbEntity
  8
L
  6
CONTINUOUS
 62
     2
100
AcDbLine
 10
64.999995
 20
-92.150000
 11
64.999995
 21
-86.750000
  0
LINE
  5
4C1
100
AcDbEntity
  8
L
  6
CONTINUOUS
 62
     2
100
AcDbLine
 10
-65.000005
 20
-86.750000
 11
-65.000005
 21
-92.150000
  0
ARC
  5
4C2
100
AcDbEntity
  8
L
  6
CONTINUOUS
 62
     2
100
AcDbCircle
 10
-64.400005
 20
-92.150000
 40
0.600000
100
AcDbArc
 50
180.000000
 51
270.000000
  0
LINE
  5
4C3
100
AcDbEntity
  8
L
  6
CONTINUOUS
 62
     2
100
AcDbLine
 10
-64.400005
 20
-92.750000
 11
-55.600005
 21
-92.750000
  0
ARC
  5
4C4
100
AcDbEntity
  8
L
  6
CONTINUOUS
 62
     2
100
AcDbCircle
 10
-55.600005
 20
-92.150000
 40
0.600000
100
AcDbArc
 50
270.000000
 51
0.000000
  0
LINE
  5
4C5
100
AcDbEntity
  8
L
  6
CONTINUOUS
 62
     2
100
AcDbLine
 10
-55.000005
 20
-92.150000
 11
-55.000005
 21
-86.750000
  0
ENDBLK
  5
4C6
100
AcDbEntity
  8
0
100
AcDbBlockEnd
  0
BLOCK
  5
4C7
100
AcDbEntity
  8
L
100
AcDbBlockBegin
  2
B-21
 70
    66
 10
0.000000
 20
0.000000
 30
0.000000
  0
LINE
  5
4C8
100
AcDbEntity
  8
L
  6
CONTINUOUS
 62
     2
100
AcDbLine
 10
-85.950000
 20
70.699990
 11
-81.949995
 21
70.699990
  0
LINE
  5
4C9
100
AcDbEntity
  8
L
  6
CONTINUOUS
 62
     2
100
AcDbLine
 10
-81.949995
 20
70.699990
 11
-81.949995
 21
36.699995
  0
LINE
  5
4CA
100
AcDbEntity
  8
L
  6
CONTINUOUS
 62
     2
100
AcDbLine
 10
-81.949995
 20
23.699995
 11
-81.949995
 21
-13.999995
  0
LINE
  5
4CB
100
AcDbEntity
  8
L
  6
CONTINUOUS
 62
     2
100
AcDbLine
 10
-81.949995
 20
-13.999995
 11
-85.950000
 21
-13.999995
  0
LINE
  5
4CC
100
AcDbEntity
  8
L
  6
CONTINUOUS
 62
     2
100
AcDbLine
 10
-85.950000
 20
-13.999995
 11
-85.950000
 21
70.699990
  0
LINE
  5
4CD
100
AcDbEntity
  8
L
  6
CONTINUOUS
 62
     2
100
AcDbLine
 10
-83.499980
 20
27.316170
 11
-85.950000
 21
27.316170
  0
LINE
  5
4CE
100
AcDbEntity
  8
L
  6
CONTINUOUS
 62
     2
100
AcDbLine
 10
-81.949995
 20
10.235190
 11
-85.950000
 21
10.235190
  0
ENDBLK
  5
4CF
100
AcDbEntity
  8
0
100
AcDbBlockEnd
  0
BLOCK
  5
4D0
100
AcDbEntity
  8
L
100
AcDbBlockBegin
  2
B-22
 70
    66
 10
0.000000
 20
0.000000
 30
0.000000
  0
LINE
  5
4D1
100
AcDbEntity
  8
L
  6
CONTINUOUS
 62
     2
100
AcDbLine
 10
-81.949995
 20
70.699990
 11
-81.699995
 21
70.699990
  0
LINE
  5
4D2
100
AcDbEntity
  8
L
  6
CONTINUOUS
 62
     2
100
AcDbLine
 10
-81.699995
 20
70.699990
 11
-81.699995
 21
70.199995
  0
LINE
  5
4D3
100
AcDbEntity
  8
L
  6
CONTINUOUS
 62
     2
100
AcDbLine
 10
-81.949995
 20
-13.999995
 11
-81.699995
 21
-13.999995
  0
LINE
  5
4D4
100
AcDbEntity
  8
L
  6
CONTINUOUS
 62
     2
100
AcDbLine
 10
-81.699995
 20
-13.999995
 11
-81.699995
 21
-13.500000
  0
LINE
  5
4D5
100
AcDbEntity
  8
L
  6
CONTINUOUS
 62
     2
100
AcDbLine
 10
-81.699995
 20
10.235190
 11
-81.949995
 21
10.235190
  0
LINE
  5
4D6
100
AcDbEntity
  8
L
  6
CONTINUOUS
 62
     2
100
AcDbLine
 10
-86.200000
 20
-12.499970
 11
-86.200000
 21
-13.999995
  0
LINE
  5
4D7
100
AcDbEntity
  8
L
  6
CONTINUOUS
 62
     2
100
AcDbLine
 10
-86.200000
 20
-13.999995
 11
-85.950000
 21
-13.999995
  0
LINE
  5
4D8
100
AcDbEntity
  8
L
  6
CONTINUOUS
 62
     2
100
AcDbLine
 10
-86.200000
 20
69.200025
 11
-86.200000
 21
70.699990
  0
LINE
  5
4D9
100
AcDbEntity
  8
L
  6
CONTINUOUS
 62
     2
100
AcDbLine
 10
-86.200000
 20
70.699990
 11
-85.950000
 21
70.699990
  0
LINE
  5
4DA
100
AcDbEntity
  8
L
  6
CONTINUOUS
 62
     2
100
AcDbLine
 10
-85.950000
 20
10.235190
 11
-86.200000
 21
10.235190
  0
LINE
  5
4DB
100
AcDbEntity
  8
L
  6
CONTINUOUS
 62
     2
100
AcDbLine
 10
-85.950000
 20
27.316170
 11
-86.200000
 21
27.316170
  0
ENDBLK
  5
4DC
100
AcDbEntity
  8
0
100
AcDbBlockEnd
  0
BLOCK
  5
4DD
100
AcDbEntity
  8
L
100
AcDbBlockBegin
  2
B-23
 70
    66
 10
0.000000
 20
0.000000
 30
0.000000
  0
LINE
  5
4DE
100
AcDbEntity
  8
L
  6
CONTINUOUS
 62
     2
100
AcDbLine
 10
-76.750000
 20
-71.000000
 11
-77.250000
 21
-71.000000
  0
LINE
  5
4DF
100
AcDbEntity
  8
L
  6
CONTINUOUS
 62
     2
100
AcDbLine
 10
-77.250000
 20
-71.000000
 11
-77.250000
 21
-82.000000
  0
LINE
  5
4E0
100
AcDbEntity
  8
L
  6
CONTINUOUS
 62
     2
100
AcDbLine
 10
-77.250000
 20
-82.000000
 11
-76.750000
 21
-82.000000
  0
LINE
  5
4E1
100
AcDbEntity
  8
L
  6
CONTINUOUS
 62
     2
100
AcDbLine
 10
-76.750000
 20
-82.000000
 11
-76.750000
 21
-81.750000
  0
ENDBLK
  5
4E2
100
AcDbEntity
  8
0
100
AcDbBlockEnd
  0
BLOCK
  5
4E3
100
AcDbEntity
  8
L
100
AcDbBlockBegin
  2
B-24
 70
    66
 10
0.000000
 20
0.000000
 30
0.000000
  0
LINE
  5
4E4
100
AcDbEntity
  8
L
  6
CONTINUOUS
 62
     2
100
AcDbLine
 10
-77.250000
 20
-71.500000
 11
-82.650000
 21
-71.500000
  0
ARC
  5
4E5
100
AcDbEntity
  8
L
  6
CONTINUOUS
 62
     2
100
AcDbCircle
 10
-82.650000
 20
-72.100000
 40
0.600000
100
AcDbArc
 50
90.000000
 51
180.000000
  0
LINE
  5
4E6
100
AcDbEntity
  8
L
  6
CONTINUOUS
 62
     2
100
AcDbLine
 10
-83.250000
 20
-72.100000
 11
-83.250000
 21
-80.900000
  0
ARC
  5
4E7
100
AcDbEntity
  8
L
  6
CONTINUOUS
 62
     2
100
AcDbCircle
 10
-82.650000
 20
-80.900000
 40
0.600000
100
AcDbArc
 50
180.000000
 51
270.000000
  0
LINE
  5
4E8
100
AcDbEntity
  8
L
  6
CONTINUOUS
 62
     2
100
AcDbLine
 10
-82.650000
 20
-81.500000
 11
-77.250000
 21
-81.500000
  0
ENDBLK
  5
4E9
100
AcDbEntity
  8
0
100
AcDbBlockEnd
  0
BLOCK
  5
4EA
100
AcDbEntity
  8
L
100
AcDbBlockBegin
  2
B-25
 70
    66
 10
0.000000
 20
0.000000
 30
0.000000
  0
ARC
  5
4EB
100
AcDbEntity
  8
L
  6
CONTINUOUS
 62
     2
100
AcDbCircle
 10
77.999985
 20
-51.999990
 40
6.250004
100
AcDbArc
 50
127.428435
 51
301.870613
  0
ENDBLK
  5
4EC
100
AcDbEntity
  8
0
100
AcDbBlockEnd
  0
BLOCK
  5
4ED
100
AcDbEntity
  8
L
100
AcDbBlockBegin
  2
B-26
 70
    66
 10
0.000000
 20
0.000000
 30
0.000000
  0
LINE
  5
4EE
100
AcDbEntity
  8
L
  6
CONTINUOUS
 62
     2
100
AcDbLine
 10
77.999985
 20
-54.886740
 11
75.499985
 21
-53.443365
  0
LINE
  5
4EF
100
AcDbEntity
  8
L
  6
CONTINUOUS
 62
     2
100
AcDbLine
 10
75.499985
 20
-53.443365
 11
75.499985
 21
-50.556615
  0
LINE
  5
4F0
100
AcDbEntity
  8
L
  6
CONTINUOUS
 62
     2
100
AcDbLine
 10
75.499985
 20
-50.556615
 11
77.058340
 21
-49.656900
  0
LINE
  5
4F1
100
AcDbEntity
  8
L
  6
CONTINUOUS
 62
     2
100
AcDbLine
 10
80.499985
 20
-50.731145
 11
80.499985
 21
-53.443365
  0
LINE
  5
4F2
100
AcDbEntity
  8
L
  6
CONTINUOUS
 62
     2
100
AcDbLine
 10
80.499985
 20
-53.443365
 11
77.999985
 21
-54.886740
  0
ARC
  5
4F3
100
AcDbEntity
  8
L
  6
CONTINUOUS
 62
     2
100
AcDbCircle
 10
77.999985
 20
-51.999990
 40
5.000006
100
AcDbArc
 50
125.519874
 51
311.300105
  0
ENDBLK
  5
4F4
100
AcDbEntity
  8
0
100
AcDbBlockEnd
  0
BLOCK
  5
4F5
100
AcDbEntity
  8
L
100
AcDbBlockBegin
  2
B-27
 70
    66
 10
0.000000
 20
0.000000
 30
0.000000
  0
ARC
  5
4F6
100
AcDbEntity
  8
L
  6
CONTINUOUS
 62
     2
100
AcDbCircle
 10
77.999990
 20
45.999995
 40
6.250002
100
AcDbArc
 50
58.129426
 51
245.979331
  0
ENDBLK
  5
4F7
100
AcDbEntity
  8
0
100
AcDbBlockEnd
  0
BLOCK
  5
4F8
100
AcDbEntity
  8
L
100
AcDbBlockBegin
  2
B-28
 70
    66
 10
0.000000
 20
0.000000
 30
0.000000
  0
LINE
  5
4F9
100
AcDbEntity
  8
L
  6
CONTINUOUS
 62
     2
100
AcDbLine
 10
77.999990
 20
43.113245
 11
75.499990
 21
44.556620
  0
LINE
  5
4FA
100
AcDbEntity
  8
L
  6
CONTINUOUS
 62
     2
100
AcDbLine
 10
75.499990
 20
44.556620
 11
75.499990
 21
47.443370
  0
LINE
  5
4FB
100
AcDbEntity
  8
L
  6
CONTINUOUS
 62
     2
100
AcDbLine
 10
75.499990
 20
47.443370
 11
77.999990
 21
48.886745
  0
LINE
  5
4FC
100
AcDbEntity
  8
L
  6
CONTINUOUS
 62
     2
100
AcDbLine
 10
77.999990
 20
48.886745
 11
80.499990
 21
47.443370
  0
LINE
  5
4FD
100
AcDbEntity
  8
L
  6
CONTINUOUS
 62
     2
100
AcDbLine
 10
80.499990
 20
47.443370
 11
80.499990
 21
44.556620
  0
LINE
  5
4FE
100
AcDbEntity
  8
L
  6
CONTINUOUS
 62
     2
100
AcDbLine
 10
80.499990
 20
44.556620
 11
77.999990
 21
43.113245
  0
ARC
  5
4FF
100
AcDbEntity
  8
L
  6
CONTINUOUS
 62
     2
100
AcDbCircle
 10
77.999990
 20
45.999995
 40
5.000008
100
AcDbArc
 50
48.699975
 51
251.585887
  0
ENDBLK
  5
500
100
AcDbEntity
  8
0
100
AcDbBlockEnd
  0
BLOCK
  5
501
100
AcDbEntity
  8
L
100
AcDbBlockBegin
  2
B-29
 70
    66
 10
0.000000
 20
0.000000
 30
0.000000
  0
LINE
  5
502
100
AcDbEntity
  8
L
  6
CONTINUOUS
 62
     2
100
AcDbLine
 10
237.300005
 20
-59.999970
 11
237.300005
 21
-97.999970
  0
LINE
  5
503
100
AcDbEntity
  8
L
  6
CONTINUOUS
 62
     2
100
AcDbLine
 10
237.300005
 20
-97.999970
 11
191.300005
 21
-97.999970
  0
LINE
  5
504
100
AcDbEntity
  8
L
  6
CONTINUOUS
 62
     2
100
AcDbLine
 10
191.300005
 20
-59.999970
 11
237.300005
 21
-59.999970
  0
LINE
  5
505
100
AcDbEntity
  8
L
  6
CONTINUOUS
 62
     2
100
AcDbLine
 10
191.300005
 20
-58.499970
 11
191.300005
 21
-99.499970
  0
LINE
  5
506
100
AcDbEntity
  8
L
  6
CONTINUOUS
 62
     2
100
AcDbLine
 10
191.300005
 20
-58.499970
 11
192.800005
 21
-59.999970
  0
LINE
  5
507
100
AcDbEntity
  8
L
  6
CONTINUOUS
 62
     2
100
AcDbLine
 10
191.300005
 20
-99.499970
 11
192.800005
 21
-97.999970
  0
LINE
  5
508
100
AcDbEntity
  8
L
  6
CONTINUOUS
 62
     2
100
AcDbLine
 10
190.300005
 20
-99.499970
 11
191.300005
 21
-99.499970
  0
LINE
  5
509
100
AcDbEntity
  8
L
  6
CONTINUOUS
 62
     2
100
AcDbLine
 10
190.300005
 20
-58.499970
 11
191.300005
 21
-58.499970
  0
LINE
  5
50A
100
AcDbEntity
  8
L
  6
BORDER
 62
     4
100
AcDbLine
 10
176.426540
 20
-78.999970
 11
245.865255
 21
-78.999970
  0
LINE
  5
50B
100
AcDbEntity
  8
L
  6
CONTINUOUS
 62
     2
100
AcDbLine
 10
101.300005
 20
-134.999970
 11
115.800050
 21
-134.999970
  0
LINE
  5
50C
100
AcDbEntity
  8
L
  6
CONTINUOUS
 62
     2
100
AcDbLine
 10
126.799910
 20
-134.999970
 11
167.300005
 21
-134.999970
  0
LINE
  5
50D
100
AcDbEntity
  8
L
  6
CONTINUOUS
 62
     2
100
AcDbLine
 10
81.300005
 20
-114.999970
 11
81.300005
 21
60.000030
  0
ARC
  5
50E
100
AcDbEntity
  8
L
  6
CONTINUOUS
 62
     2
100
AcDbCircle
 10
101.300005
 20
-114.999970
 40
20.000000
100
AcDbArc
 50
180.000000
 51
270.000000
  0
ARC
  5
50F
100
AcDbEntity
  8
L
  6
CONTINUOUS
 62
     2
100
AcDbCircle
 10
190.300007
 20
-55.499975
 40
2.999995
100
AcDbArc
 50
179.999912
 51
269.999964
  0
LINE
  5
510
100
AcDbEntity
  8
L
  6
CONTINUOUS
 62
     2
100
AcDbLine
 10
101.300005
 20
80.000025
 11
115.800005
 21
80.000025
  0
LINE
  5
511
100
AcDbEntity
  8
L
  6
CONTINUOUS
 62
     2
100
AcDbLine
 10
126.800005
 20
80.000025
 11
167.300005
 21
80.000025
  0
ARC
  5
512
100
AcDbEntity
  8
L
  6
CONTINUOUS
 62
     2
100
AcDbCircle
 10
167.300005
 20
60.000030
 40
19.999995
100
AcDbArc
 50
359.999986
 51
90.000000
  0
ARC
  5
513
100
AcDbEntity
  8
L
  6
CONTINUOUS
 62
     2
100
AcDbCircle
 10
101.300005
 20
60.000030
 40
19.999995
100
AcDbArc
 50
90.000000
 51
180.000000
  0
LINE
  5
514
100
AcDbEntity
  8
L
  6
CONTINUOUS
 62
     2
100
AcDbLine
 10
119.800005
 20
-89.460575
 11
119.800005
 21
31.460635
  0
LINE
  5
515
100
AcDbEntity
  8
L
  6
CONTINUOUS
 62
     2
100
AcDbLine
 10
121.300005
 20
-89.460575
 11
121.300005
 21
31.460635
  0
LINE
  5
516
100
AcDbEntity
  8
L
  6
CONTINUOUS
 62
     2
100
AcDbLine
 10
122.800005
 20
-89.460580
 11
122.800005
 21
31.460635
  0
LINE
  5
517
100
AcDbEntity
  8
L
  6
CONTINUOUS
 62
     2
100
AcDbLine
 10
119.800005
 20
50.539420
 11
119.800005
 21
84.000025
  0
LINE
  5
518
100
AcDbEntity
  8
L
  6
CONTINUOUS
 62
     2
100
AcDbLine
 10
121.300005
 20
50.539410
 11
121.300005
 21
84.000025
  0
LINE
  5
519
100
AcDbEntity
  8
L
  6
CONTINUOUS
 62
     2
100
AcDbLine
 10
122.800005
 20
50.539415
 11
122.800005
 21
84.000025
  0
ARC
  5
51A
100
AcDbEntity
  8
L
  6
CONTINUOUS
 62
     2
100
AcDbCircle
 10
115.800052
 20
-138.999970
 40
4.000000
100
AcDbArc
 50
0.000000
 51
90.000024
  0
ARC
  5
51B
100
AcDbEntity
  8
L
  6
CONTINUOUS
 62
     2
100
AcDbCircle
 10
126.799910
 20
-138.999970
 40
3.999905
100
AcDbArc
 50
89.999997
 51
180.000000
  0
LINE
  5
51C
100
AcDbEntity
  8
L
  6
CONTINUOUS
 62
     2
100
AcDbLine
 10
119.800005
 20
84.000025
 11
122.800005
 21
84.000025
  0
ARC
  5
51D
100
AcDbEntity
  8
L
  6
CONTINUOUS
 62
     2
100
AcDbCircle
 10
115.800005
 20
84.000030
 40
4.000005
100
AcDbArc
 50
270.000000
 51
359.999928
  0
ARC
  5
51E
100
AcDbEntity
  8
L
  6
CONTINUOUS
 62
     2
100
AcDbCircle
 10
126.800005
 20
84.000030
 40
4.000000
100
AcDbArc
 50
180.000072
 51
270.000000
  0
CIRCLE
  5
51F
100
AcDbEntity
  8
L
  6
CONTINUOUS
 62
     2
100
AcDbCircle
 10
121.300007
 20
-98.999975
 40
6.999998
  0
ARC
  5
520
100
AcDbEntity
  8
L
  6
CONTINUOUS
 62
     2
100
AcDbCircle
 10
121.300007
 20
-98.999975
 40
8.499998
100
AcDbArc
 50
107.457602
 51
252.542379
  0
ARC
  5
521
100
AcDbEntity
  8
L
  6
CONTINUOUS
 62
     2
100
AcDbCircle
 10
121.300007
 20
-98.999975
 40
8.500006
100
AcDbArc
 50
287.457597
 51
72.542422
  0
ARC
  5
522
100
AcDbEntity
  8
L
  6
CONTINUOUS
 62
     2
100
AcDbCircle
 10
118.300007
 20
-89.460583
 40
1.499993
100
AcDbArc
 50
287.457608
 51
0.000291
  0
ARC
  5
523
100
AcDbEntity
  8
L
  6
CONTINUOUS
 62
     2
100
AcDbCircle
 10
124.300007
 20
-89.460583
 40
1.499994
100
AcDbArc
 50
179.999900
 51
252.542255
  0
ARC
  5
524
100
AcDbEntity
  8
L
  6
CONTINUOUS
 62
     2
100
AcDbCircle
 10
124.300007
 20
-108.539367
 40
1.500003
100
AcDbArc
 50
107.457639
 51
179.999746
  0
ARC
  5
525
100
AcDbEntity
  8
L
  6
CONTINUOUS
 62
     2
100
AcDbCircle
 10
118.300007
 20
-108.539367
 40
1.499998
100
AcDbArc
 50
0.000254
 51
72.542498
  0
ARC
  5
526
100
AcDbEntity
  8
L
  6
CONTINUOUS
 62
     2
100
AcDbCircle
 10
124.300007
 20
-89.460583
 40
2.999996
100
AcDbArc
 50
179.999950
 51
252.542333
  0
ARC
  5
527
100
AcDbEntity
  8
L
  6
CONTINUOUS
 62
     2
100
AcDbCircle
 10
118.300007
 20
-89.460583
 40
2.999994
100
AcDbArc
 50
287.457599
 51
0.000145
  0
ARC
  5
528
100
AcDbEntity
  8
L
  6
CONTINUOUS
 62
     2
100
AcDbCircle
 10
118.300007
 20
-108.539367
 40
3.000003
100
AcDbArc
 50
0.000127
 51
72.542454
  0
ARC
  5
529
100
AcDbEntity
  8
L
  6
CONTINUOUS
 62
     2
100
AcDbCircle
 10
124.300007
 20
-108.539367
 40
3.000004
100
AcDbArc
 50
107.457614
 51
179.999873
  0
LINE
  5
52A
100
AcDbEntity
  8
L
  6
BORDER
 62
     4
100
AcDbLine
 10
107.397505
 20
-98.999970
 11
135.589555
 21
-98.999970
  0
LINE
  5
52B
100
AcDbEntity
  8
L
  6
BORDER
 62
     4
100
AcDbLine
 10
121.300005
 20
-89.460580
 11
121.300005
 21
-108.539360
  0
CIRCLE
  5
52C
100
AcDbEntity
  8
L
  6
CONTINUOUS
 62
     2
100
AcDbCircle
 10
121.300007
 20
41.000025
 40
6.999998
  0
ARC
  5
52D
100
AcDbEntity
  8
L
  6
CONTINUOUS
 62
     2
100
AcDbCircle
 10
121.300007
 20
41.000025
 40
8.500002
100
AcDbArc
 50
107.457612
 51
252.542389
  0
ARC
  5
52E
100
AcDbEntity
  8
L
  6
CONTINUOUS
 62
     2
100
AcDbCircle
 10
121.300007
 20
41.000025
 40
8.500001
100
AcDbArc
 50
287.457587
 51
72.542412
  0
ARC
  5
52F
100
AcDbEntity
  8
L
  6
CONTINUOUS
 62
     2
100
AcDbCircle
 10
118.300007
 20
50.539417
 40
1.499998
100
AcDbArc
 50
287.457551
 51
0.000100
  0
ARC
  5
530
100
AcDbEntity
  8
L
  6
CONTINUOUS
 62
     2
100
AcDbCircle
 10
124.300007
 20
50.539417
 40
1.500002
100
AcDbArc
 50
180.000091
 51
252.542312
  0
ARC
  5
531
100
AcDbEntity
  8
L
  6
CONTINUOUS
 62
     2
100
AcDbCircle
 10
124.300007
 20
31.460633
 40
1.499999
100
AcDbArc
 50
107.457696
 51
179.999937
  0
ARC
  5
532
100
AcDbEntity
  8
L
  6
CONTINUOUS
 62
     2
100
AcDbCircle
 10
118.300007
 20
31.460633
 40
1.499998
100
AcDbArc
 50
0.000063
 51
72.542440
  0
ARC
  5
533
100
AcDbEntity
  8
L
  6
CONTINUOUS
 62
     2
100
AcDbCircle
 10
124.300007
 20
50.539417
 40
3.000002
100
AcDbArc
 50
180.000046
 51
252.542362
  0
ARC
  5
534
100
AcDbEntity
  8
L
  6
CONTINUOUS
 62
     2
100
AcDbCircle
 10
118.300007
 20
50.539417
 40
2.999999
100
AcDbArc
 50
287.457570
 51
0.000050
  0
ARC
  5
535
100
AcDbEntity
  8
L
  6
CONTINUOUS
 62
     2
100
AcDbCircle
 10
118.300007
 20
31.460633
 40
2.999998
100
AcDbArc
 50
0.000031
 51
72.542425
  0
ARC
  5
536
100
AcDbEntity
  8
L
  6
CONTINUOUS
 62
     2
100
AcDbCircle
 10
124.300007
 20
31.460633
 40
3.000000
100
AcDbArc
 50
107.457643
 51
179.999969
  0
LINE
  5
537
100
AcDbEntity
  8
L
  6
BORDER
 62
     4
100
AcDbLine
 10
107.397505
 20
41.000025
 11
135.589555
 21
41.000025
  0
LINE
  5
538
100
AcDbEntity
  8
L
  6
BORDER
 62
     4
100
AcDbLine
 10
121.300005
 20
50.539415
 11
121.300005
 21
31.460635
  0
ARC
  5
539
100
AcDbEntity
  8
L
  6
CONTINUOUS
 62
     2
100
AcDbCircle
 10
190.300007
 20
-102.499965
 40
2.999995
100
AcDbArc
 50
90.000036
 51
180.000088
  0
LINE
  5
53A
100
AcDbEntity
  8
L
  6
CONTINUOUS
 62
     2
100
AcDbLine
 10
114.300005
 20
-140.499970
 11
112.800005
 21
-138.999970
  0
LINE
  5
53B
100
AcDbEntity
  8
L
  6
CONTINUOUS
 62
     2
100
AcDbLine
 10
128.300005
 20
-140.499970
 11
129.800005
 21
-138.999970
  0
ARC
  5
53C
100
AcDbEntity
  8
L
  6
CONTINUOUS
 62
     2
100
AcDbCircle
 10
108.800005
 20
-138.999970
 40
4.000000
100
AcDbArc
 50
0.000000
 51
90.000000
  0
LINE
  5
53D
100
AcDbEntity
  8
L
  6
CONTINUOUS
 62
     2
100
AcDbLine
 10
129.800005
 20
-138.999970
 11
129.800005
 21
-138.953050
  0
ARC
  5
53E
100
AcDbEntity
  8
L
  6
CONTINUOUS
 62
     2
100
AcDbCircle
 10
133.800005
 20
-138.953049
 40
4.000004
100
AcDbArc
 50
93.583318
 51
180.672106
  0
LINE
  5
53F
100
AcDbEntity
  8
L
  6
CONTINUOUS
 62
     2
100
AcDbLine
 10
114.300005
 20
-143.499970
 11
128.300005
 21
-143.499970
  0
LINE
  5
540
100
AcDbEntity
  8
L
  6
BORDER
 62
     4
100
AcDbLine
 10
121.300005
 20
-154.291385
 11
121.300005
 21
-138.976510
  0
LINE
  5
541
100
AcDbEntity
  8
L
  6
CONTINUOUS
 62
     2
100
AcDbLine
 10
114.300005
 20
-143.499970
 11
114.300005
 21
-138.999970
  0
LINE
  5
542
100
AcDbEntity
  8
L
  6
CONTINUOUS
 62
     2
100
AcDbLine
 10
128.300005
 20
-143.499970
 11
128.300005
 21
-138.999970
  0
LINE
  5
543
100
AcDbEntity
  8
L
  6
CONTINUOUS
 62
     2
100
AcDbLine
 10
112.800005
 20
-138.999970
 11
129.800005
 21
-138.953050
  0
LINE
  5
544
100
AcDbEntity
  8
L
  6
CONTINUOUS
 62
     2
100
AcDbLine
 10
119.800005
 20
-108.539360
 11
119.800005
 21
-138.999970
  0
LINE
  5
545
100
AcDbEntity
  8
L
  6
CONTINUOUS
 62
     2
100
AcDbLine
 10
122.800005
 20
-108.539360
 11
122.800005
 21
-138.972370
  0
LINE
  5
546
100
AcDbEntity
  8
L
  6
CONTINUOUS
 62
     2
100
AcDbLine
 10
122.800005
 20
-138.972370
 11
122.800005
 21
-138.999970
  0
LINE
  5
547
100
AcDbEntity
  8
L
  6
CONTINUOUS
 62
     2
100
AcDbLine
 10
121.300005
 20
-108.539360
 11
121.300005
 21
-138.976510
  0
LINE
  5
548
100
AcDbEntity
  8
L
  6
CONTINUOUS
 62
     2
100
AcDbLine
 10
187.300005
 20
-55.499970
 11
187.300005
 21
60.000025
  0
LINE
  5
549
100
AcDbEntity
  8
L
  6
CONTINUOUS
 62
     2
100
AcDbLine
 10
187.300005
 20
-55.499975
 11
187.300005
 21
-114.999970
  0
ARC
  5
54A
100
AcDbEntity
  8
L
  6
CONTINUOUS
 62
     2
100
AcDbCircle
 10
167.300005
 20
-114.999970
 40
20.000000
100
AcDbArc
 50
270.000000
 51
0.000000
  0
LINE
  5
54B
100
AcDbEntity
  8
L
  6
BORDER
 62
     4
100
AcDbLine
 10
214.039700
 20
-3.999970
 11
58.276450
 21
-3.999965
  0
LINE
  5
54C
100
AcDbEntity
  8
L
  6
CONTINUOUS
 62
     2
100
AcDbLine
 10
69.300005
 20
38.000030
 11
76.800005
 21
38.625030
  0
LINE
  5
54D
100
AcDbEntity
  8
L
  6
CONTINUOUS
 62
     2
100
AcDbLine
 10
76.800005
 20
41.635430
 11
78.549145
 21
41.781195
  0
LINE
  5
54E
100
AcDbEntity
  8
L
  6
CONTINUOUS
 62
     2
100
AcDbLine
 10
76.800005
 20
41.635430
 11
73.515935
 21
38.351355
  0
LINE
  5
54F
100
AcDbEntity
  8
L
  6
CONTINUOUS
 62
     2
100
AcDbLine
 10
69.300005
 20
-45.999970
 11
76.800005
 21
-46.624970
  0
LINE
  5
550
100
AcDbEntity
  8
L
  6
CONTINUOUS
 62
     2
100
AcDbLine
 10
76.800005
 20
41.635430
 11
76.800005
 21
-49.635370
  0
LINE
  5
551
100
AcDbEntity
  8
L
  6
CONTINUOUS
 62
     2
100
AcDbLine
 10
76.800005
 20
-49.635370
 11
78.549140
 21
-49.781130
  0
LINE
  5
552
100
AcDbEntity
  8
L
  6
CONTINUOUS
 62
     2
100
AcDbLine
 10
73.515935
 20
-46.351295
 11
76.800005
 21
-49.635370
  0
ARC
  5
553
100
AcDbEntity
  8
L
  6
CONTINUOUS
 62
     2
100
AcDbCircle
 10
78.300007
 20
-52.770773
 40
3.000006
100
AcDbArc
 50
0.000158
 51
85.236431
  0
LINE
  5
554
100
AcDbEntity
  8
L
  6
CONTINUOUS
 62
     2
100
AcDbLine
 10
69.300005
 20
-45.999970
 11
69.300005
 21
38.000030
  0
ARC
  5
555
100
AcDbEntity
  8
L
  6
CONTINUOUS
 62
     2
100
AcDbCircle
 10
190.797600
 20
32.584963
 40
1.500000
100
AcDbArc
 50
109.373815
 51
183.246132
  0
ARC
  5
556
100
AcDbEntity
  8
L
  6
CONTINUOUS
 62
     2
100
AcDbCircle
 10
190.797600
 20
49.415088
 40
1.500002
100
AcDbArc
 50
176.753896
 51
250.626195
  0
ARC
  5
557
100
AcDbEntity
  8
L
  6
CONTINUOUS
 62
     2
100
AcDbCircle
 10
188.300007
 20
50.500025
 40
1.000002
100
AcDbArc
 50
180.000021
 51
269.999893
  0
ARC
  5
558
100
AcDbEntity
  8
L
  6
CONTINUOUS
 62
     2
100
AcDbCircle
 10
188.300007
 20
31.500025
 40
1.000000
100
AcDbArc
 50
90.000107
 51
180.000021
  0
LINE
  5
559
100
AcDbEntity
  8
L
  6
BORDER
 62
     4
100
AcDbLine
 10
176.426540
 20
41.000025
 11
198.363160
 21
41.000025
  0
LINE
  5
55A
100
AcDbEntity
  8
L
  6
CONTINUOUS
 62
     2
100
AcDbLine
 10
188.300005
 20
49.500025
 11
189.300005
 21
49.500025
  0
LINE
  5
55B
100
AcDbEntity
  8
L
  6
CONTINUOUS
 62
     2
100
AcDbLine
 10
190.300005
 20
48.000025
 11
190.300005
 21
34.000025
  0
LINE
  5
55C
100
AcDbEntity
  8
L
  6
CONTINUOUS
 62
     2
100
AcDbLine
 10
189.300005
 20
32.500025
 11
188.300005
 21
32.500025
  0
LINE
  5
55D
100
AcDbEntity
  8
L
  6
CONTINUOUS
 62
     2
100
AcDbLine
 10
189.300005
 20
49.500025
 11
189.300005
 21
32.500025
  0
LINE
  5
55E
100
AcDbEntity
  8
L
  6
CONTINUOUS
 62
     2
100
AcDbLine
 10
189.300005
 20
48.000025
 11
190.300005
 21
48.000025
  0
LINE
  5
55F
100
AcDbEntity
  8
L
  6
CONTINUOUS
 62
     2
100
AcDbLine
 10
189.300005
 20
34.000025
 11
190.300005
 21
34.000025
  0
LINE
  5
560
100
AcDbEntity
  8
L
  6
BORDER
 62
     4
100
AcDbLine
 10
63.000015
 20
-32.999965
 11
91.300005
 21
-32.999970
  0
LINE
  5
561
100
AcDbEntity
  8
L
  6
BORDER
 62
     4
100
AcDbLine
 10
59.300005
 20
25.000030
 11
91.300005
 21
25.000025
  0
ARC
  5
562
100
AcDbEntity
  8
L
  6
CONTINUOUS
 62
     2
100
AcDbCircle
 10
78.300005
 20
44.770831
 40
2.999999
100
AcDbArc
 50
274.763712
 51
359.999989
  0
CIRCLE
  5
563
100
AcDbEntity
  8
L
  6
CONTINUOUS
 62
     2
100
AcDbCircle
 10
121.300007
 20
41.000025
 40
2.399998
  0
ARC
  5
564
100
AcDbEntity
  8
L
  6
CONTINUOUS
 62
     4
100
AcDbCircle
 10
121.300007
 20
41.000024
 40
2.999998
100
AcDbArc
 50
260.000064
 51
170.000063
  0
CIRCLE
  5
565
100
AcDbEntity
  8
L
  6
CONTINUOUS
 62
     2
100
AcDbCircle
 10
121.300007
 20
-98.999975
 40
2.399998
  0
ARC
  5
566
100
AcDbEntity
  8
L
  6
CONTINUOUS
 62
     4
100
AcDbCircle
 10
121.300007
 20
-98.999976
 40
3.000000
100
AcDbArc
 50
260.000047
 51
169.999969
  0
ENDBLK
  5
567
100
AcDbEntity
  8
0
100
AcDbBlockEnd
  0
BLOCK
  5
568
100
AcDbEntity
  8
L
100
AcDbBlockBegin
  2
B-30
 70
    66
 10
0.000000
 20
0.000000
 30
0.000000
  0
LINE
  5
569
100
AcDbEntity
  8
L
  6
CONTINUOUS
 62
     2
100
AcDbLine
 10
-179.399585
 20
89.000010
 11
-179.399585
 21
-76.999985
  0
LINE
  5
56A
100
AcDbEntity
  8
L
  6
CONTINUOUS
 62
     2
100
AcDbLine
 10
-208.899585
 20
61.609740
 11
-208.899580
 21
-16.999990
  0
LINE
  5
56B
100
AcDbEntity
  8
L
  6
BORDER
 62
     4
100
AcDbLine
 10
-114.199995
 20
5.999995
 11
-218.426655
 21
6.000010
  0
LINE
  5
56C
100
AcDbEntity
  8
L
  6
CONTINUOUS
 62
     2
100
AcDbLine
 10
-179.399575
 20
-76.999985
 11
-180.950895
 21
-76.999985
  0
ARC
  5
56D
100
AcDbEntity
  8
L
  6
CONTINUOUS
 62
     2
100
AcDbCircle
 10
-182.753685
 20
-79.999991
 40
3.500012
100
AcDbArc
 50
58.997126
 51
89.999834
  0
ARC
  5
56E
100
AcDbEntity
  8
L
  6
CONTINUOUS
 62
     2
100
AcDbCircle
 10
-182.799582
 20
-73.899992
 40
2.599993
100
AcDbArc
 50
179.999851
 51
270.000165
  0
LINE
  5
56F
100
AcDbEntity
  8
L
  6
CONTINUOUS
 62
     2
100
AcDbLine
 10
-185.399585
 20
-69.499980
 11
-185.399575
 21
-73.899985
  0
LINE
  5
570
100
AcDbEntity
  8
L
  6
CONTINUOUS
 62
     2
100
AcDbLine
 10
-182.753675
 20
-76.499985
 11
-182.799575
 21
-76.499985
  0
LINE
  5
571
100
AcDbEntity
  8
L
  6
CONTINUOUS
 62
     2
100
AcDbLine
 10
-179.399585
 20
89.000010
 11
-180.950905
 21
89.000010
  0
ARC
  5
572
100
AcDbEntity
  8
L
  6
CONTINUOUS
 62
     2
100
AcDbCircle
 10
-182.753696
 20
92.000011
 40
3.500009
100
AcDbArc
 50
270.000182
 51
301.002926
  0
ARC
  5
573
100
AcDbEntity
  8
L
  6
CONTINUOUS
 62
     2
100
AcDbCircle
 10
-182.799593
 20
85.900012
 40
2.599992
100
AcDbArc
 50
89.999813
 51
180.000050
  0
LINE
  5
574
100
AcDbEntity
  8
L
  6
CONTINUOUS
 62
     2
100
AcDbLine
 10
-185.399585
 20
82.100010
 11
-185.399585
 21
85.900010
  0
ARC
  5
575
100
AcDbEntity
  8
L
  6
CONTINUOUS
 62
     2
100
AcDbCircle
 10
-186.999590
 20
82.100016
 40
1.600006
100
AcDbArc
 50
270.000189
 51
359.999790
  0
LINE
  5
576
100
AcDbEntity
  8
L
  6
CONTINUOUS
 62
     2
100
AcDbLine
 10
-182.753685
 20
88.500010
 11
-182.799585
 21
88.500010
  0
ARC
  5
577
100
AcDbEntity
  8
L
  6
CONTINUOUS
 62
     2
100
AcDbCircle
 10
-187.399590
 20
70.500016
 40
9.999994
100
AcDbArc
 50
89.999970
 51
130.473804
  0
LINE
  5
578
100
AcDbEntity
  8
L
  6
CONTINUOUS
 62
     2
100
AcDbLine
 10
-186.999585
 20
80.500010
 11
-187.399585
 21
80.500010
  0
LINE
  5
579
100
AcDbEntity
  8
L
  6
CONTINUOUS
 62
     2
100
AcDbLine
 10
-193.890590
 20
78.107040
 11
-206.092390
 21
67.695365
  0
ARC
  5
57A
100
AcDbEntity
  8
L
  6
CONTINUOUS
 62
     2
100
AcDbCircle
 10
-200.899590
 20
61.609747
 40
7.999995
100
AcDbArc
 50
130.473810
 51
180.000050
  0
LINE
  5
57B
100
AcDbEntity
  8
L
  6
CONTINUOUS
 62
     2
100
AcDbLine
 10
-180.950915
 20
89.000010
 11
-180.950915
 21
-76.999985
  0
LINE
  5
57C
100
AcDbEntity
  8
L
  6
CONTINUOUS
 62
     2
100
AcDbLine
 10
-185.399585
 20
82.100015
 11
-185.399585
 21
-69.499980
  0
LINE
  5
57D
100
AcDbEntity
  8
L
  6
CONTINUOUS
 62
     2
100
AcDbLine
 10
-198.499595
 20
-2.499985
 11
-207.299585
 21
-2.499985
  0
ARC
  5
57E
100
AcDbEntity
  8
L
  6
CONTINUOUS
 62
     2
100
AcDbCircle
 10
-207.299586
 20
-0.899987
 40
1.599999
100
AcDbArc
 50
179.999923
 51
270.000046
  0
ARC
  5
57F
100
AcDbEntity
  8
L
  6
CONTINUOUS
 62
     2
100
AcDbCircle
 10
-198.499594
 20
-4.099987
 40
1.599999
100
AcDbArc
 50
0.000077
 51
90.000018
  0
LINE
  5
580
100
AcDbEntity
  8
L
  6
CONTINUOUS
 62
     2
100
AcDbLine
 10
-196.899580
 20
-15.899975
 11
-196.899575
 21
-68.246250
  0
LINE
  5
581
100
AcDbEntity
  8
L
  6
CONTINUOUS
 62
     2
100
AcDbLine
 10
-187.399585
 20
-68.499980
 11
-195.779275
 21
-68.499985
  0
ARC
  5
582
100
AcDbEntity
  8
L
  6
CONTINUOUS
 62
     2
100
AcDbCircle
 10
-186.999589
 20
-70.099978
 40
1.599998
100
AcDbArc
 50
359.999928
 51
89.999684
  0
ARC
  5
583
100
AcDbEntity
  8
L
  6
CONTINUOUS
 62
     2
100
AcDbCircle
 10
-195.779285
 20
-65.899985
 40
2.599995
100
AcDbArc
 50
229.632641
 51
270.000109
  0
ARC
  5
584
100
AcDbEntity
  8
L
  6
CONTINUOUS
 62
     2
100
AcDbCircle
 10
-198.499577
 20
-69.099987
 40
1.600005
100
AcDbArc
 50
49.632131
 51
89.999935
  0
LINE
  5
585
100
AcDbEntity
  8
L
  6
CONTINUOUS
 62
     2
100
AcDbLine
 10
-198.499575
 20
-67.499985
 11
-201.899570
 21
-67.499985
  0
LINE
  5
586
100
AcDbEntity
  8
L
  6
CONTINUOUS
 62
     2
100
AcDbLine
 10
-201.899570
 20
-67.499970
 11
-207.899565
 21
-67.500000
  0
LINE
  5
587
100
AcDbEntity
  8
L
  6
CONTINUOUS
 62
     2
100
AcDbLine
 10
-198.499590
 20
-17.499980
 11
-201.899580
 21
-17.499985
  0
ARC
  5
588
100
AcDbEntity
  8
L
  6
CONTINUOUS
 62
     2
100
AcDbCircle
 10
-198.499585
 20
-15.899971
 40
1.599999
100
AcDbArc
 50
270.000011
 51
359.999873
  0
LINE
  5
589
100
AcDbEntity
  8
L
  6
CONTINUOUS
 62
     2
100
AcDbLine
 10
-196.899580
 20
-15.899970
 11
-196.899590
 21
-4.099990
  0
LINE
  5
58A
100
AcDbEntity
  8
L
  6
CONTINUOUS
 62
     2
100
AcDbLine
 10
-207.899570
 20
-17.499995
 11
-201.899585
 21
-17.499965
  0
LINE
  5
58B
100
AcDbEntity
  8
L
  6
BORDER
 62
     4
100
AcDbLine
 10
-171.981250
 20
-42.499985
 11
-213.693585
 21
-42.499990
  0
LINE
  5
58C
100
AcDbEntity
  8
L
  6
CONTINUOUS
 62
     2
100
AcDbLine
 10
-186.999580
 20
-68.499980
 11
-187.399580
 21
-68.499980
  0
ENDBLK
  5
58D
100
AcDbEntity
  8
0
100
AcDbBlockEnd
  0
BLOCK
  5
58E
100
AcDbEntity
  8
L
100
AcDbBlockBegin
  2
B-31
 70
    66
 10
0.000000
 20
0.000000
 30
0.000000
  0
LINE
  5
58F
100
AcDbEntity
  8
L
  6
CONTINUOUS
 62
     2
100
AcDbLine
 10
-183.994630
 20
93.499995
 11
-183.994630
 21
88.209100
  0
LINE
  5
590
100
AcDbEntity
  8
L
  6
CONTINUOUS
 62
     2
100
AcDbLine
 10
-172.000005
 20
93.499995
 11
-172.000005
 21
86.266550
  0
ENDBLK
  5
591
100
AcDbEntity
  8
0
100
AcDbBlockEnd
  0
BLOCK
  5
592
100
AcDbEntity
  8
L
100
AcDbBlockBegin
  2
B-32
 70
    66
 10
0.000000
 20
0.000000
 30
0.000000
  0
LINE
  5
593
100
AcDbEntity
  8
L
  6
BORDER
 62
     4
100
AcDbLine
 10
-67.999997
 20
-113.095191
 11
-67.999997
 21
-85.677056
  0
ARC
  5
594
100
AcDbEntity
  8
L
  6
CONTINUOUS
 62
     2
100
AcDbCircle
 10
-65.000002
 20
-94.000001
 40
15.400005
100
AcDbArc
 50
310.565990
 51
35.761769
  0
ARC
  5
595
100
AcDbEntity
  8
L
  6
CONTINUOUS
 62
     2
100
AcDbCircle
 10
-65.000002
 20
-94.000001
 40
15.900007
100
AcDbArc
 50
297.763768
 51
34.474442
  0
ENDBLK
  5
596
100
AcDbEntity
  8
0
100
AcDbBlockEnd
  0
BLOCK
  5
597
100
AcDbEntity
  8
L
100
AcDbBlockBegin
  2
B-33
 70
    66
 10
0.000000
 20
0.000000
 30
0.000000
  0
ARC
  5
598
100
AcDbEntity
  8
L
  6
CONTINUOUS
 62
     2
100
AcDbCircle
 10
-30.800001
 20
-80.092594
 40
15.107402
100
AcDbArc
 50
270.000005
 51
321.254046
  0
ARC
  5
599
100
AcDbEntity
  8
L
  6
CONTINUOUS
 62
     2
100
AcDbCircle
 10
-34.404621
 20
-77.199998
 40
19.729136
100
AcDbArc
 50
321.254043
 51
336.711918
  0
ARC
  5
59A
100
AcDbEntity
  8
L
  6
CONTINUOUS
 62
     2
100
AcDbCircle
 10
30.799999
 20
-80.092594
 40
15.107399
100
AcDbArc
 50
269.999986
 51
321.254034
  0
ARC
  5
59B
100
AcDbEntity
  8
L
  6
CONTINUOUS
 62
     2
100
AcDbCircle
 10
27.195379
 20
-77.199998
 40
19.729131
100
AcDbArc
 50
321.254034
 51
336.711912
  0
ARC
  5
59C
100
AcDbEntity
  8
L
  6
CONTINUOUS
 62
     2
100
AcDbCircle
 10
34.404618
 20
-77.199998
 40
19.729135
100
AcDbArc
 50
203.288080
 51
218.745953
  0
ARC
  5
59D
100
AcDbEntity
  8
L
  6
CONTINUOUS
 62
     2
100
AcDbCircle
 10
30.799999
 20
-80.092594
 40
15.107401
100
AcDbArc
 50
218.745949
 51
269.999986
  0
ARC
  5
59E
100
AcDbEntity
  8
L
  6
CONTINUOUS
 62
     2
100
AcDbCircle
 10
29.499999
 20
-77.199998
 40
18.999996
100
AcDbArc
 50
204.237903
 51
335.762088
  0
ARC
  5
59F
100
AcDbEntity
  8
L
  6
CONTINUOUS
 62
     2
100
AcDbCircle
 10
30.799999
 20
-77.800003
 40
12.699995
100
AcDbArc
 50
214.536341
 51
325.463640
  0
LINE
  5
5A0
100
AcDbEntity
  8
L
  6
CONTINUOUS
 62
     2
100
AcDbLine
 10
-9.000000
 20
-93.000000
 11
-9.000000
 21
-113.000000
  0
ARC
  5
5A1
100
AcDbEntity
  8
L
  6
CONTINUOUS
 62
     2
100
AcDbCircle
 10
-29.500001
 20
-77.199998
 40
18.999998
100
AcDbArc
 50
204.237910
 51
335.762094
  0
ARC
  5
5A2
100
AcDbEntity
  8
L
  6
CONTINUOUS
 62
     2
100
AcDbCircle
 10
-30.800001
 20
-77.800003
 40
12.699997
100
AcDbArc
 50
214.536354
 51
325.463653
  0
LINE
  5
5A3
100
AcDbEntity
  8
L
  6
CONTINUOUS
 62
     2
100
AcDbLine
 10
81.300005
 20
-114.000000
 11
-102.499995
 21
-114.000000
  0
LINE
  5
5A4
100
AcDbEntity
  8
L
  6
CONTINUOUS
 62
     2
100
AcDbLine
 10
80.180070
 20
53.999995
 11
81.300005
 21
53.999995
  0
ARC
  5
5A5
100
AcDbEntity
  8
L
  6
CONTINUOUS
 62
     2
100
AcDbCircle
 10
-0.000001
 20
-93.000003
 40
9.000002
100
AcDbArc
 50
117.266023
 51
179.999980
  0
ARC
  5
5A6
100
AcDbEntity
  8
L
  6
CONTINUOUS
 62
     2
100
AcDbCircle
 10
-0.000001
 20
-93.000003
 40
8.999996
100
AcDbArc
 50
0.000020
 51
62.734017
  0
LINE
  5
5A7
100
AcDbEntity
  8
L
  6
CONTINUOUS
 62
     2
100
AcDbLine
 10
8.999995
 20
-93.000000
 11
8.999995
 21
-113.000000
  0
LINE
  5
5A8
100
AcDbEntity
  8
L
  6
CONTINUOUS
 62
     2
100
AcDbLine
 10
-103.499990
 20
-110.883510
 11
-103.499995
 21
-113.000000
  0
LINE
  5
5A9
100
AcDbEntity
  8
L
  6
CONTINUOUS
 62
     2
100
AcDbLine
 10
-103.499995
 20
-113.000000
 11
-102.499995
 21
-114.000000
  0
LINE
  5
5AA
100
AcDbEntity
  8
L
  6
BORDER
 62
     4
100
AcDbLine
 10
-95.522080
 20
-67.499995
 11
-99.222775
 21
-67.499990
  0
LINE
  5
5AB
100
AcDbEntity
  8
L
  6
CONTINUOUS
 62
     2
100
AcDbLine
 10
-109.499775
 20
-111.000000
 11
-126.457635
 21
-111.000000
  0
ARC
  5
5AC
100
AcDbEntity
  8
L
  6
CONTINUOUS
 62
     2
100
AcDbCircle
 10
-105.099996
 20
-112.600003
 40
1.600001
100
AcDbArc
 50
0.000115
 51
89.999949
  0
LINE
  5
5AD
100
AcDbEntity
  8
L
  6
CONTINUOUS
 62
     2
100
AcDbLine
 10
-73.944275
 20
-113.000000
 11
-103.499995
 21
-113.000000
  0
LINE
  5
5AE
100
AcDbEntity
  8
L
  6
CONTINUOUS
 62
     2
100
AcDbLine
 10
-102.249995
 20
-110.000000
 11
-102.499995
 21
-110.000000
  0
ARC
  5
5AF
100
AcDbEntity
  8
L
  6
CONTINUOUS
 62
     2
100
AcDbCircle
 10
-102.249996
 20
-111.000003
 40
1.000001
100
AcDbArc
 50
0.000184
 51
89.999918
  0
LINE
  5
5B0
100
AcDbEntity
  8
L
  6
CONTINUOUS
 62
     2
100
AcDbLine
 10
-102.499995
 20
-110.000000
 11
-102.499995
 21
-72.040790
  0
LINE
  5
5B1
100
AcDbEntity
  8
L
  6
CONTINUOUS
 62
     2
100
AcDbLine
 10
-101.249995
 20
-113.000000
 11
-101.249995
 21
-111.000000
  0
ARC
  5
5B2
100
AcDbEntity
  8
L
  6
CONTINUOUS
 62
     2
100
AcDbCircle
 10
-99.499996
 20
-92.000003
 40
3.000002
100
AcDbArc
 50
99.593936
 51
179.999939
  0
LINE
  5
5B3
100
AcDbEntity
  8
L
  6
CONTINUOUS
 62
     2
100
AcDbLine
 10
-96.749995
 20
-68.400000
 11
-96.749995
 21
-59.681845
  0
ARC
  5
5B4
100
AcDbEntity
  8
L
  6
CONTINUOUS
 62
     2
100
AcDbCircle
 10
-98.349996
 20
-68.400003
 40
1.599997
100
AcDbArc
 50
270.000051
 51
0.000115
  0
LINE
  5
5B5
100
AcDbEntity
  8
L
  6
CONTINUOUS
 62
     2
100
AcDbLine
 10
-93.000000
 20
-69.856435
 11
-93.000000
 21
-55.151635
  0
LINE
  5
5B6
100
AcDbEntity
  8
L
  6
CONTINUOUS
 62
     2
100
AcDbLine
 10
-96.999995
 20
-104.000000
 11
-85.174240
 21
-104.000000
  0
ARC
  5
5B7
100
AcDbEntity
  8
L
  6
CONTINUOUS
 62
     2
100
AcDbCircle
 10
-85.174242
 20
-107.000003
 40
3.000004
100
AcDbArc
 50
32.797196
 51
89.999953
  0
ARC
  5
5B8
100
AcDbEntity
  8
L
  6
CONTINUOUS
 62
     2
100
AcDbCircle
 10
-96.999994
 20
-101.000003
 40
3.000001
100
AcDbArc
 50
179.999939
 51
269.999983
  0
LINE
  5
5B9
100
AcDbEntity
  8
L
  6
CONTINUOUS
 62
     2
100
AcDbLine
 10
-96.999990
 20
-84.000000
 11
-85.174240
 21
-84.000000
  0
ARC
  5
5BA
100
AcDbEntity
  8
L
  6
CONTINUOUS
 62
     2
100
AcDbCircle
 10
-85.174242
 20
-81.000003
 40
3.000000
100
AcDbArc
 50
270.000047
 51
327.202907
  0
ARC
  5
5BB
100
AcDbEntity
  8
L
  6
CONTINUOUS
 62
     2
100
AcDbCircle
 10
-96.999992
 20
-87.000003
 40
3.000003
100
AcDbArc
 50
89.999970
 51
179.999939
  0
ARC
  5
5BC
100
AcDbEntity
  8
L
  6
CONTINUOUS
 62
     2
100
AcDbCircle
 10
-27.195382
 20
-77.199998
 40
19.729131
100
AcDbArc
 50
203.288086
 51
218.745962
  0
ARC
  5
5BD
100
AcDbEntity
  8
L
  6
CONTINUOUS
 62
     2
100
AcDbCircle
 10
-30.800001
 20
-80.092594
 40
15.107401
100
AcDbArc
 50
218.745961
 51
270.000005
  0
ARC
  5
5BE
100
AcDbEntity
  8
L
  6
CONTINUOUS
 62
     2
100
AcDbCircle
 10
-48.691086
 20
-87.956497
 40
3.000001
100
AcDbArc
 50
326.673542
 51
29.270427
  0
ARC
  5
5BF
100
AcDbEntity
  8
L
  6
CONTINUOUS
 62
     2
100
AcDbCircle
 10
-29.805564
 20
-99.197876
 40
2.999994
100
AcDbArc
 50
89.204155
 51
151.801048
  0
ARC
  5
5C0
100
AcDbEntity
  8
L
  6
CONTINUOUS
 62
     2
100
AcDbCircle
 10
-65.000001
 20
-94.000003
 40
20.999999
100
AcDbArc
 50
287.752812
 51
334.552865
  0
ARC
  5
5C1
100
AcDbEntity
  8
L
  6
CONTINUOUS
 62
     2
100
AcDbCircle
 10
-65.000001
 20
-94.000003
 40
21.000001
100
AcDbArc
 50
186.606170
 51
252.247196
  0
ARC
  5
5C2
100
AcDbEntity
  8
L
  6
CONTINUOUS
 62
     2
100
AcDbCircle
 10
-65.000001
 20
-94.000003
 40
21.000003
100
AcDbArc
 50
143.470388
 51
173.393812
  0
ARC
  5
5C3
100
AcDbEntity
  8
L
  6
CONTINUOUS
 62
     2
100
AcDbCircle
 10
-43.328433
 20
-104.312283
 40
2.999998
100
AcDbArc
 50
69.632586
 51
154.552769
  0
ARC
  5
5C4
100
AcDbEntity
  8
L
  6
CONTINUOUS
 62
     2
100
AcDbCircle
 10
-87.449946
 20
-91.400003
 40
1.599997
100
AcDbArc
 50
270.000206
 51
353.393962
  0
ARC
  5
5C5
100
AcDbEntity
  8
L
  6
CONTINUOUS
 62
     2
100
AcDbCircle
 10
-87.449946
 20
-96.600003
 40
1.599999
100
AcDbArc
 50
6.606267
 51
89.999973
  0
LINE
  5
5C6
100
AcDbEntity
  8
L
  6
BORDER
 62
     4
100
AcDbLine
 10
-39.500000
 20
-102.500000
 11
-39.500000
 21
-85.500000
  0
LINE
  5
5C7
100
AcDbEntity
  8
L
  6
BORDER
 62
     4
100
AcDbLine
 10
-31.000000
 20
-94.000000
 11
-48.000000
 21
-94.000000
  0
ARC
  5
5C8
100
AcDbEntity
  8
L
  6
CONTINUOUS
 62
     2
100
AcDbCircle
 10
-39.500001
 20
-94.000003
 40
7.999999
100
AcDbArc
 50
146.673456
 51
331.801129
  0
LINE
  5
5C9
100
AcDbEntity
  8
L
  6
BORDER
 62
     4
100
AcDbLine
 10
-65.000000
 20
-102.500000
 11
-65.000000
 21
-92.150000
  0
LINE
  5
5CA
100
AcDbEntity
  8
L
  6
BORDER
 62
     4
100
AcDbLine
 10
-48.000000
 20
-94.000000
 11
-89.592690
 21
-94.000000
  0
LINE
  5
5CB
100
AcDbEntity
  8
L
  6
CONTINUOUS
 62
     2
100
AcDbLine
 10
-99.999990
 20
-86.267970
 11
-99.999995
 21
-113.000000
  0
ARC
  5
5CC
100
AcDbEntity
  8
L
  6
CONTINUOUS
 62
     2
100
AcDbCircle
 10
-83.999999
 20
-86.267971
 40
15.999993
100
AcDbArc
 50
150.000003
 51
179.999997
  0
LINE
  5
5CD
100
AcDbEntity
  8
L
  6
CONTINUOUS
 62
     2
100
AcDbLine
 10
-91.730340
 20
-67.657320
 11
-97.856400
 21
-78.267975
  0
LINE
  5
5CE
100
AcDbEntity
  8
L
  6
CONTINUOUS
 62
     2
100
AcDbLine
 10
-71.500000
 20
-14.331440
 11
-71.500000
 21
-15.049860
  0
ARC
  5
5CF
100
AcDbEntity
  8
L
  6
CONTINUOUS
 62
     2
100
AcDbCircle
 10
-74.500001
 20
-14.331442
 40
3.000004
100
AcDbArc
 50
0.000045
 51
16.090007
  0
LINE
  5
5D0
100
AcDbEntity
  8
L
  6
CONTINUOUS
 62
     2
100
AcDbLine
 10
81.300005
 20
-113.000000
 11
-56.055725
 21
-113.000000
  0
ENDBLK
  5
5D1
100
AcDbEntity
  8
0
100
AcDbBlockEnd
  0
BLOCK
  5
5D2
100
AcDbEntity
  8
L
100
AcDbBlockBegin
  2
B-34
 70
    66
 10
0.000000
 20
0.000000
 30
0.000000
  0
ARC
  5
5D3
100
AcDbEntity
  8
L
  6
CONTINUOUS
 62
     2
100
AcDbCircle
 10
-80.750002
 20
-66.999982
 40
11.000004
100
AcDbArc
 50
136.658241
 51
256.863459
  0
LINE
  5
5D4
100
AcDbEntity
  8
L
  6
BORDER
 62
     4
100
AcDbLine
 10
-63.179610
 20
-66.999985
 11
-71.750000
 21
-66.999985
  0
LINE
  5
5D5
100
AcDbEntity
  8
L
  6
BORDER
 62
     4
100
AcDbLine
 10
-77.750000
 20
-66.999985
 11
-94.947480
 21
-66.999985
  0
LINE
  5
5D6
100
AcDbEntity
  8
L
  6
CONTINUOUS
 62
     2
100
AcDbLine
 10
-94.199995
 20
-49.542965
 11
-91.199925
 21
-63.565020
  0
ARC
  5
5D7
100
AcDbEntity
  8
L
  6
CONTINUOUS
 62
     2
100
AcDbCircle
 10
-89.950007
 20
-23.999982
 40
9.499997
100
AcDbArc
 50
89.999986
 51
116.574891
  0
ARC
  5
5D8
100
AcDbEntity
  8
L
  6
CONTINUOUS
 62
     2
100
AcDbCircle
 10
-77.133582
 20
-23.544058
 40
10.455999
100
AcDbArc
 50
22.876483
 51
30.751452
  0
ARC
  5
5D9
100
AcDbEntity
  8
L
  6
CONTINUOUS
 62
     2
100
AcDbCircle
 10
-76.054145
 20
-22.901823
 40
9.199957
100
AcDbArc
 50
30.751449
 51
41.683087
  0
ARC
  5
5DA
100
AcDbEntity
  8
L
  6
CONTINUOUS
 62
     2
100
AcDbCircle
 10
-74.715889
 20
-21.710187
 40
7.408050
100
AcDbArc
 50
41.683081
 51
55.154734
  0
ARC
  5
5DB
100
AcDbEntity
  8
L
  6
CONTINUOUS
 62
     2
100
AcDbCircle
 10
-74.231322
 20
-21.014160
 40
6.559953
100
AcDbArc
 50
55.154731
 51
71.514062
  0
ARC
  5
5DC
100
AcDbEntity
  8
L
  6
CONTINUOUS
 62
     2
100
AcDbCircle
 10
-73.950002
 20
-20.172697
 40
5.672710
100
AcDbArc
 50
71.514059
 51
74.362280
  0
LINE
  5
5DD
100
AcDbEntity
  8
L
  6
CONTINUOUS
 62
     2
100
AcDbLine
 10
-89.950005
 20
-14.499985
 11
-87.749995
 21
-14.499985
  0
ENDBLK
  5
5DE
100
AcDbEntity
  8
0
100
AcDbBlockEnd
  0
BLOCK
  5
5DF
100
AcDbEntity
  8
L
100
AcDbBlockBegin
  2
B-35
 70
    66
 10
0.000000
 20
0.000000
 30
0.000000
  0
ARC
  5
5E0
100
AcDbEntity
  8
L
  6
CONTINUOUS
 62
     2
100
AcDbCircle
 10
-88.975135
 20
-54.671337
 40
0.774867
100
AcDbArc
 50
180.000199
 51
204.911096
  0
ARC
  5
5E1
100
AcDbEntity
  8
L
  6
CONTINUOUS
 62
     2
100
AcDbCircle
 10
-88.430935
 20
-54.418602
 40
1.374892
100
AcDbArc
 50
204.911027
 51
222.931339
  0
ARC
  5
5E2
100
AcDbEntity
  8
L
  6
CONTINUOUS
 62
     2
100
AcDbCircle
 10
-87.898072
 20
-53.922896
 40
2.102673
100
AcDbArc
 50
222.931256
 51
234.443272
  0
ARC
  5
5E3
100
AcDbEntity
  8
L
  6
CONTINUOUS
 62
     2
100
AcDbCircle
 10
-86.661802
 20
-52.193339
 40
4.228642
100
AcDbArc
 50
234.443230
 51
241.891135
  0
ARC
  5
5E4
100
AcDbEntity
  8
L
  6
CONTINUOUS
 62
     2
100
AcDbCircle
 10
-86.007080
 20
-50.967611
 40
5.618273
100
AcDbArc
 50
241.891129
 51
246.959100
  0
ARC
  5
5E5
100
AcDbEntity
  8
L
  6
CONTINUOUS
 62
     2
100
AcDbCircle
 10
-84.791383
 20
-48.109287
 40
8.724385
100
AcDbArc
 50
246.959093
 51
250.588161
  0
ARC
  5
5E6
100
AcDbEntity
  8
L
  6
CONTINUOUS
 62
     2
100
AcDbCircle
 10
-84.024352
 20
-45.932624
 40
11.032241
100
AcDbArc
 50
250.588154
 51
255.405674
  0
ARC
  5
5E7
100
AcDbEntity
  8
L
  6
CONTINUOUS
 62
     2
100
AcDbCircle
 10
-82.518160
 20
-40.147921
 40
17.009816
100
AcDbArc
 50
255.405667
 51
258.456416
  0
ARC
  5
5E8
100
AcDbEntity
  8
L
  6
CONTINUOUS
 62
     2
100
AcDbCircle
 10
-81.400182
 20
-34.674210
 40
22.596532
100
AcDbArc
 50
258.456412
 51
266.764597
  0
ARC
  5
5E9
100
AcDbEntity
  8
L
  6
CONTINUOUS
 62
     2
100
AcDbCircle
 10
-80.750002
 20
-23.172417
 40
34.116683
100
AcDbArc
 50
266.764596
 51
270.000004
  0
ARC
  5
5EA
100
AcDbEntity
  8
L
  6
CONTINUOUS
 62
     2
100
AcDbCircle
 10
-80.750002
 20
-26.141766
 40
31.147336
100
AcDbArc
 50
270.000004
 51
272.006996
  0
ARC
  5
5EB
100
AcDbEntity
  8
L
  6
CONTINUOUS
 62
     2
100
AcDbCircle
 10
-80.670320
 20
-28.415623
 40
28.872085
100
AcDbArc
 50
272.006997
 51
274.835770
  0
ARC
  5
5EC
100
AcDbEntity
  8
L
  6
CONTINUOUS
 62
     2
100
AcDbCircle
 10
-80.537180
 20
-29.989367
 40
27.292716
100
AcDbArc
 50
274.835770
 51
276.291694
  0
ARC
  5
5ED
100
AcDbEntity
  8
L
  6
CONTINUOUS
 62
     2
100
AcDbCircle
 10
-80.163807
 20
-33.375841
 40
23.885724
100
AcDbArc
 50
276.291695
 51
278.336410
  0
ARC
  5
5EE
100
AcDbEntity
  8
L
  6
CONTINUOUS
 62
     2
100
AcDbCircle
 10
-79.896188
 20
-35.202172
 40
22.039889
100
AcDbArc
 50
278.336411
 51
280.283176
  0
ARC
  5
5EF
100
AcDbEntity
  8
L
  6
CONTINUOUS
 62
     2
100
AcDbCircle
 10
-79.056876
 20
-39.828333
 40
17.338209
100
AcDbArc
 50
280.283177
 51
283.085439
  0
ARC
  5
5F0
100
AcDbEntity
  8
L
  6
CONTINUOUS
 62
     2
100
AcDbCircle
 10
-78.584471
 20
-41.860711
 40
15.251648
100
AcDbArc
 50
283.085440
 51
285.019833
  0
ARC
  5
5F1
100
AcDbEntity
  8
L
  6
CONTINUOUS
 62
     2
100
AcDbCircle
 10
-77.730222
 20
-45.044407
 40
11.955341
100
AcDbArc
 50
285.019836
 51
287.522748
  0
ARC
  5
5F2
100
AcDbEntity
  8
L
  6
CONTINUOUS
 62
     2
100
AcDbCircle
 10
-77.315858
 20
-46.356786
 40
10.579101
100
AcDbArc
 50
287.522749
 51
289.411868
  0
ARC
  5
5F3
100
AcDbEntity
  8
L
  6
CONTINUOUS
 62
     2
100
AcDbCircle
 10
-76.607327
 20
-48.367439
 40
8.447260
100
AcDbArc
 50
289.411867
 51
291.703357
  0
ARC
  5
5F4
100
AcDbEntity
  8
L
  6
CONTINUOUS
 62
     2
100
AcDbCircle
 10
-76.258740
 20
-49.243250
 40
7.504624
100
AcDbArc
 50
291.703356
 51
293.916990
  0
ARC
  5
5F5
100
AcDbEntity
  8
L
  6
CONTINUOUS
 62
     2
100
AcDbCircle
 10
-75.598902
 20
-50.731067
 40
5.877057
100
AcDbArc
 50
293.916988
 51
296.573794
  0
ARC
  5
5F6
100
AcDbEntity
  8
L
  6
CONTINUOUS
 62
     2
100
AcDbCircle
 10
-75.290525
 20
-51.347585
 40
5.187714
100
AcDbArc
 50
296.573792
 51
299.107725
  0
ARC
  5
5F7
100
AcDbEntity
  8
L
  6
CONTINUOUS
 62
     2
100
AcDbCircle
 10
-74.735891
 20
-52.343751
 40
4.047555
100
AcDbArc
 50
299.107733
 51
302.103022
  0
ARC
  5
5F8
100
AcDbEntity
  8
L
  6
CONTINUOUS
 62
     2
100
AcDbCircle
 10
-74.487553
 20
-52.739589
 40
3.580267
100
AcDbArc
 50
302.103025
 51
304.910401
  0
ARC
  5
5F9
100
AcDbEntity
  8
L
  6
CONTINUOUS
 62
     2
100
AcDbCircle
 10
-74.057769
 20
-53.355432
 40
2.829281
100
AcDbArc
 50
304.910403
 51
308.164521
  0
ARC
  5
5FA
100
AcDbEntity
  8
L
  6
CONTINUOUS
 62
     2
100
AcDbCircle
 10
-73.850775
 20
-53.618810
 40
2.494297
100
AcDbArc
 50
308.164527
 51
311.955656
  0
ARC
  5
5FB
100
AcDbEntity
  8
L
  6
CONTINUOUS
 62
     2
100
AcDbCircle
 10
-73.465230
 20
-54.047668
 40
1.917612
100
AcDbArc
 50
311.955650
 51
316.387851
  0
ARC
  5
5FC
100
AcDbEntity
  8
L
  6
CONTINUOUS
 62
     2
100
AcDbCircle
 10
-73.288088
 20
-54.216430
 40
1.672951
100
AcDbArc
 50
316.387850
 51
321.572009
  0
ARC
  5
5FD
100
AcDbEntity
  8
L
  6
CONTINUOUS
 62
     2
100
AcDbCircle
 10
-72.980163
 20
-54.460733
 40
1.279882
100
AcDbArc
 50
321.572000
 51
327.610243
  0
ARC
  5
5FE
100
AcDbEntity
  8
L
  6
CONTINUOUS
 62
     2
100
AcDbCircle
 10
-72.849621
 20
-54.543545
 40
1.125288
100
AcDbArc
 50
327.610226
 51
334.565345
  0
ARC
  5
5FF
100
AcDbEntity
  8
L
  6
CONTINUOUS
 62
     2
100
AcDbCircle
 10
-72.650263
 20
-54.638354
 40
0.904534
100
AcDbArc
 50
334.565324
 51
342.413484
  0
ARC
  5
600
100
AcDbEntity
  8
L
  6
CONTINUOUS
 62
     2
100
AcDbCircle
 10
-72.580706
 20
-54.660400
 40
0.831568
100
AcDbArc
 50
342.413461
 51
350.996246
  0
ARC
  5
601
100
AcDbEntity
  8
L
  6
CONTINUOUS
 62
     2
100
AcDbCircle
 10
-72.511681
 20
-54.671337
 40
0.761681
100
AcDbArc
 50
350.996232
 51
359.999798
  0
LINE
  5
602
100
AcDbEntity
  8
L
  6
CONTINUOUS
 62
     2
100
AcDbLine
 10
-71.750000
 20
-46.300000
 11
-71.750000
 21
-54.671340
  0
LINE
  5
603
100
AcDbEntity
  8
L
  6
CONTINUOUS
 62
     2
100
AcDbLine
 10
-89.750000
 20
-28.238220
 11
-89.750000
 21
-54.671340
  0
ARC
  5
604
100
AcDbEntity
  8
L
  6
CONTINUOUS
 62
     2
100
AcDbCircle
 10
-86.209480
 20
-31.561970
 40
5.187707
100
AcDbArc
 50
116.573773
 51
119.107709
  0
ARC
  5
605
100
AcDbEntity
  8
L
  6
CONTINUOUS
 62
     2
100
AcDbCircle
 10
-86.764114
 20
-30.565804
 40
4.047548
100
AcDbArc
 50
119.107712
 51
122.103006
  0
ARC
  5
606
100
AcDbEntity
  8
L
  6
CONTINUOUS
 62
     2
100
AcDbCircle
 10
-87.012452
 20
-30.169965
 40
3.580260
100
AcDbArc
 50
122.103007
 51
124.910390
  0
ARC
  5
607
100
AcDbEntity
  8
L
  6
CONTINUOUS
 62
     2
100
AcDbCircle
 10
-87.442235
 20
-29.554123
 40
2.829274
100
AcDbArc
 50
124.910388
 51
128.164514
  0
ARC
  5
608
100
AcDbEntity
  8
L
  6
CONTINUOUS
 62
     2
100
AcDbCircle
 10
-87.649230
 20
-29.290744
 40
2.494289
100
AcDbArc
 50
128.164519
 51
131.955659
  0
ARC
  5
609
100
AcDbEntity
  8
L
  6
CONTINUOUS
 62
     2
100
AcDbCircle
 10
-88.034774
 20
-28.861887
 40
1.917605
100
AcDbArc
 50
131.955654
 51
136.387872
  0
ARC
  5
60A
100
AcDbEntity
  8
L
  6
CONTINUOUS
 62
     2
100
AcDbCircle
 10
-88.211917
 20
-28.693125
 40
1.672944
100
AcDbArc
 50
136.387873
 51
141.572054
  0
ARC
  5
60B
100
AcDbEntity
  8
L
  6
CONTINUOUS
 62
     2
100
AcDbCircle
 10
-88.519842
 20
-28.448821
 40
1.279875
100
AcDbArc
 50
141.572059
 51
147.610334
  0
ARC
  5
60C
100
AcDbEntity
  8
L
  6
CONTINUOUS
 62
     2
100
AcDbCircle
 10
-88.650384
 20
-28.366010
 40
1.125282
100
AcDbArc
 50
147.610330
 51
154.565490
  0
ARC
  5
60D
100
AcDbEntity
  8
L
  6
CONTINUOUS
 62
     2
100
AcDbCircle
 10
-88.849742
 20
-28.271201
 40
0.904528
100
AcDbArc
 50
154.565505
 51
162.413719
  0
ARC
  5
60E
100
AcDbEntity
  8
L
  6
CONTINUOUS
 62
     2
100
AcDbCircle
 10
-88.919299
 20
-28.249154
 40
0.831562
100
AcDbArc
 50
162.413717
 51
170.996562
  0
ARC
  5
60F
100
AcDbEntity
  8
L
  6
CONTINUOUS
 62
     2
100
AcDbCircle
 10
-88.988324
 20
-28.238217
 40
0.761676
100
AcDbArc
 50
170.996577
 51
180.000202
  0
ARC
  5
610
100
AcDbEntity
  8
L
  6
CONTINUOUS
 62
     2
100
AcDbCircle
 10
-88.975135
 20
-28.238217
 40
0.774867
100
AcDbArc
 50
180.000199
 51
204.911096
  0
ARC
  5
611
100
AcDbEntity
  8
L
  6
CONTINUOUS
 62
     2
100
AcDbCircle
 10
-88.430935
 20
-27.985482
 40
1.374892
100
AcDbArc
 50
204.911027
 51
222.931339
  0
ARC
  5
612
100
AcDbEntity
  8
L
  6
CONTINUOUS
 62
     2
100
AcDbCircle
 10
-87.898072
 20
-27.489776
 40
2.102673
100
AcDbArc
 50
222.931256
 51
234.443272
  0
ARC
  5
613
100
AcDbEntity
  8
L
  6
CONTINUOUS
 62
     2
100
AcDbCircle
 10
-86.661802
 20
-25.760219
 40
4.228642
100
AcDbArc
 50
234.443230
 51
241.891135
  0
ARC
  5
614
100
AcDbEntity
  8
L
  6
CONTINUOUS
 62
     2
100
AcDbCircle
 10
-86.007080
 20
-24.534491
 40
5.618273
100
AcDbArc
 50
241.891129
 51
246.959100
  0
ARC
  5
615
100
AcDbEntity
  8
L
  6
CONTINUOUS
 62
     2
100
AcDbCircle
 10
-84.791383
 20
-21.676167
 40
8.724385
100
AcDbArc
 50
246.959093
 51
250.588161
  0
ARC
  5
616
100
AcDbEntity
  8
L
  6
CONTINUOUS
 62
     2
100
AcDbCircle
 10
-84.024352
 20
-19.499504
 40
11.032241
100
AcDbArc
 50
250.588154
 51
255.405674
  0
ARC
  5
617
100
AcDbEntity
  8
L
  6
CONTINUOUS
 62
     2
100
AcDbCircle
 10
-82.518160
 20
-13.714801
 40
17.009816
100
AcDbArc
 50
255.405667
 51
258.456416
  0
ARC
  5
618
100
AcDbEntity
  8
L
  6
CONTINUOUS
 62
     2
100
AcDbCircle
 10
-81.400182
 20
-8.241090
 40
22.596531
100
AcDbArc
 50
258.456412
 51
259.546654
  0
LINE
  5
619
100
AcDbEntity
  8
L
  6
BORDER
 62
     4
100
AcDbLine
 10
-80.750000
 20
-46.300000
 11
-80.750000
 21
-66.999985
  0
ARC
  5
61A
100
AcDbEntity
  8
L
  6
CONTINUOUS
 62
     2
100
AcDbCircle
 10
-87.339474
 20
-25.605292
 40
0.410523
100
AcDbArc
 50
180.000375
 51
215.418704
  0
ARC
  5
61B
100
AcDbEntity
  8
L
  6
CONTINUOUS
 62
     2
100
AcDbCircle
 10
-86.703641
 20
-25.153118
 40
1.190744
100
AcDbArc
 50
215.418654
 51
234.931425
  0
ARC
  5
61C
100
AcDbEntity
  8
L
  6
CONTINUOUS
 62
     2
100
AcDbCircle
 10
-86.098374
 20
-24.290913
 40
2.244191
100
AcDbArc
 50
234.931316
 51
244.977315
  0
ARC
  5
61D
100
AcDbEntity
  8
L
  6
CONTINUOUS
 62
     2
100
AcDbCircle
 10
-84.822222
 20
-21.557038
 40
5.261249
100
AcDbArc
 50
244.977248
 51
250.769975
  0
ARC
  5
61E
100
AcDbEntity
  8
L
  6
CONTINUOUS
 62
     2
100
AcDbCircle
 10
-84.227379
 20
-19.851762
 40
7.067293
100
AcDbArc
 50
250.769965
 51
254.477246
  0
ARC
  5
61F
100
AcDbEntity
  8
L
  6
CONTINUOUS
 62
     2
100
AcDbCircle
 10
-83.207418
 20
-16.179575
 40
10.878499
100
AcDbArc
 50
254.477232
 51
257.040362
  0
ARC
  5
620
100
AcDbEntity
  8
L
  6
CONTINUOUS
 62
     2
100
AcDbCircle
 10
-82.498285
 20
-13.098085
 40
14.040531
100
AcDbArc
 50
257.040359
 51
257.655577
  0
LINE
  5
621
100
AcDbEntity
  8
L
  6
CONTINUOUS
 62
     2
100
AcDbLine
 10
-87.749995
 20
-12.499970
 11
-87.749995
 21
-25.605295
  0
ARC
  5
622
100
AcDbEntity
  8
L
  6
CONTINUOUS
 62
     2
100
AcDbCircle
 10
-89.250007
 20
-25.605290
 40
1.500007
100
AcDbArc
 50
297.102206
 51
359.999815
  0
ENDBLK
  5
623
100
AcDbEntity
  8
0
100
AcDbBlockEnd
  0
BLOCK
  5
624
100
AcDbEntity
  8
L
100
AcDbBlockBegin
  2
B-36
 70
    66
 10
0.000000
 20
0.000000
 30
0.000000
  0
LINE
  5
625
100
AcDbEntity
  8
L
  6
CONTINUOUS
 62
     2
100
AcDbLine
 10
-171.856255
 20
-72.499965
 11
-104.699995
 21
-72.499965
  0
LINE
  5
626
100
AcDbEntity
  8
L
  6
CONTINUOUS
 62
     2
100
AcDbLine
 10
-86.200000
 20
-12.499970
 11
-86.200000
 21
69.200025
  0
LINE
  5
627
100
AcDbEntity
  8
L
  6
CONTINUOUS
 62
     2
100
AcDbLine
 10
-104.699995
 20
84.500030
 11
-171.856265
 21
84.500020
  0
LINE
  5
628
100
AcDbEntity
  8
L
  6
CONTINUOUS
 62
     2
100
AcDbLine
 10
-99.199995
 20
79.000030
 11
-99.199995
 21
-66.999965
  0
ARC
  5
629
100
AcDbEntity
  8
L
  6
CONTINUOUS
 62
     2
100
AcDbCircle
 10
-104.699998
 20
79.000034
 40
5.500003
100
AcDbArc
 50
359.999962
 51
89.999964
  0
LINE
  5
62A
100
AcDbEntity
  8
L
  6
CONTINUOUS
 62
     2
100
AcDbLine
 10
-94.199995
 20
67.999960
 11
-94.199995
 21
-50.999990
  0
LINE
  5
62B
100
AcDbEntity
  8
L
  6
CONTINUOUS
 62
     2
100
AcDbLine
 10
-171.199990
 20
84.500030
 11
-171.199990
 21
86.500020
  0
LINE
  5
62C
100
AcDbEntity
  8
L
  6
CONTINUOUS
 62
     2
100
AcDbLine
 10
-171.199990
 20
86.500020
 11
-169.699990
 21
86.500020
  0
LINE
  5
62D
100
AcDbEntity
  8
L
  6
CONTINUOUS
 62
     2
100
AcDbLine
 10
-169.699990
 20
86.500020
 11
-169.699990
 21
84.500030
  0
LINE
  5
62E
100
AcDbEntity
  8
L
  6
CONTINUOUS
 62
     2
100
AcDbLine
 10
-86.200000
 20
69.200025
 11
-94.579130
 21
69.200025
  0
LINE
  5
62F
100
AcDbEntity
  8
L
  6
CONTINUOUS
 62
     2
100
AcDbLine
 10
-99.635090
 20
81.144030
 11
-94.318655
 21
68.584685
  0
LINE
  5
630
100
AcDbEntity
  8
L
  6
CONTINUOUS
 62
     2
100
AcDbLine
 10
-86.200000
 20
-12.499970
 11
-94.199995
 21
-12.499970
  0
ARC
  5
631
100
AcDbEntity
  8
L
  6
CONTINUOUS
 62
     2
100
AcDbCircle
 10
-95.699998
 20
67.999964
 40
1.500003
100
AcDbArc
 50
359.999860
 51
22.942893
  0
ARC
  5
632
100
AcDbEntity
  8
L
  6
CONTINUOUS
 62
     2
100
AcDbCircle
 10
-104.699998
 20
-66.999966
 40
5.499999
100
AcDbArc
 50
270.000036
 51
0.000014
  0
LINE
  5
633
100
AcDbEntity
  8
L
  6
CONTINUOUS
 62
     2
100
AcDbLine
 10
-99.433975
 20
-68.587105
 11
-94.263805
 21
-51.432845
  0
ARC
  5
634
100
AcDbEntity
  8
L
  6
CONTINUOUS
 62
     2
100
AcDbCircle
 10
-95.699998
 20
-50.999991
 40
1.500005
100
AcDbArc
 50
343.227744
 51
0.000051
  0
LINE
  5
635
100
AcDbEntity
  8
L
  6
BORDER
 62
     4
100
AcDbLine
 10
-114.199995
 20
6.000000
 11
-80.979215
 21
5.999995
  0
ENDBLK
  5
636
100
AcDbEntity
  8
0
100
AcDbBlockEnd
  0
BLOCK
  5
637
100
AcDbEntity
  8
L
100
AcDbBlockBegin
  2
B-37
 70
    66
 10
0.000000
 20
0.000000
 30
0.000000
  0
LINE
  5
638
100
AcDbEntity
  8
L
  6
CONTINUOUS
 62
     2
100
AcDbLine
 10
-38.288665
 20
53.999995
 11
-24.153385
 21
53.999990
  0
LINE
  5
639
100
AcDbEntity
  8
L
  6
CONTINUOUS
 62
     2
100
AcDbLine
 10
28.153395
 20
53.999990
 11
42.288660
 21
53.999995
  0
ARC
  5
63A
100
AcDbEntity
  8
L
  6
CONTINUOUS
 62
     2
100
AcDbCircle
 10
28.153402
 20
61.999987
 40
7.999997
100
AcDbArc
 50
200.924801
 51
269.999947
  0
ARC
  5
63B
100
AcDbEntity
  8
L
  6
CONTINUOUS
 62
     2
100
AcDbCircle
 10
2.000009
 20
51.999987
 40
19.999999
100
AcDbArc
 50
20.924845
 51
159.075163
  0
ARC
  5
63C
100
AcDbEntity
  8
L
  6
CONTINUOUS
 62
     2
100
AcDbCircle
 10
-24.153385
 20
61.999987
 40
7.999997
100
AcDbArc
 50
269.999999
 51
339.075180
  0
LINE
  5
63D
100
AcDbEntity
  8
L
  6
BORDER
 62
     4
100
AcDbLine
 10
2.000000
 20
88.999990
 11
2.000000
 21
68.769585
  0
LINE
  5
63E
100
AcDbEntity
  8
L
  6
CONTINUOUS
 62
     2
100
AcDbLine
 10
24.500005
 20
83.999990
 11
-26.953170
 21
83.999990
  0
LINE
  5
63F
100
AcDbEntity
  8
L
  6
CONTINUOUS
 62
     2
100
AcDbLine
 10
-20.499995
 20
83.999990
 11
-20.499995
 21
80.999990
  0
LINE
  5
640
100
AcDbEntity
  8
L
  6
CONTINUOUS
 62
     2
100
AcDbLine
 10
-28.130930
 20
80.999990
 11
24.500005
 21
80.999990
  0
LINE
  5
641
100
AcDbEntity
  8
L
  6
CONTINUOUS
 62
     2
100
AcDbLine
 10
24.500005
 20
80.999990
 11
24.500005
 21
83.999990
  0
LINE
  5
642
100
AcDbEntity
  8
L
  6
DASHED
 62
     3
100
AcDbLine
 10
14.500005
 20
83.999990
 11
14.500005
 21
80.999990
  0
LINE
  5
643
100
AcDbEntity
  8
L
  6
DASHED
 62
     3
100
AcDbLine
 10
-10.499995
 20
83.999990
 11
-10.499995
 21
80.999990
  0
LINE
  5
644
100
AcDbEntity
  8
L
  6
CONTINUOUS
 62
     2
100
AcDbLine
 10
30.953170
 20
83.999990
 11
24.500005
 21
83.999990
  0
LINE
  5
645
100
AcDbEntity
  8
L
  6
CONTINUOUS
 62
     2
100
AcDbLine
 10
24.500005
 20
80.999990
 11
32.130930
 21
80.999990
  0
ARC
  5
646
100
AcDbEntity
  8
L
  6
CONTINUOUS
 62
     2
100
AcDbCircle
 10
30.953174
 20
72.999992
 40
10.999995
100
AcDbArc
 50
59.809680
 51
90.000022
  0
ARC
  5
647
100
AcDbEntity
  8
L
  6
CONTINUOUS
 62
     2
100
AcDbCircle
 10
32.130935
 20
72.999992
 40
7.999997
100
AcDbArc
 50
66.954808
 51
90.000034
  0
ARC
  5
648
100
AcDbEntity
  8
L
  6
CONTINUOUS
 62
     2
100
AcDbCircle
 10
16.369822
 20
47.933563
 40
39.999991
100
AcDbArc
 50
30.764215
 51
59.809666
  0
ARC
  5
649
100
AcDbEntity
  8
L
  6
CONTINUOUS
 62
     2
100
AcDbCircle
 10
19.604300
 20
43.553711
 40
39.999997
100
AcDbArc
 50
42.126801
 51
66.954794
  0
ARC
  5
64A
100
AcDbEntity
  8
L
  6
CONTINUOUS
 62
     2
100
AcDbCircle
 10
-26.953167
 20
72.999992
 40
10.999999
100
AcDbArc
 50
90.000018
 51
120.190354
  0
ARC
  5
64B
100
AcDbEntity
  8
L
  6
CONTINUOUS
 62
     2
100
AcDbCircle
 10
-28.130927
 20
72.999992
 40
8.000000
100
AcDbArc
 50
90.000021
 51
113.045242
  0
ARC
  5
64C
100
AcDbEntity
  8
L
  6
CONTINUOUS
 62
     2
100
AcDbCircle
 10
-12.369814
 20
47.933563
 40
39.999997
100
AcDbArc
 50
120.190344
 51
149.235790
  0
ARC
  5
64D
100
AcDbEntity
  8
L
  6
CONTINUOUS
 62
     2
100
AcDbCircle
 10
-15.604293
 20
43.553711
 40
39.999997
100
AcDbArc
 50
113.045216
 51
137.873206
  0
ARC
  5
64E
100
AcDbEntity
  8
L
  6
CONTINUOUS
 62
     2
100
AcDbCircle
 10
40.000001
 20
61.999987
 40
12.499996
100
AcDbArc
 50
16.955373
 51
42.126789
  0
ARC
  5
64F
100
AcDbEntity
  8
L
  6
CONTINUOUS
 62
     2
100
AcDbCircle
 10
-36.000001
 20
61.999987
 40
12.499996
100
AcDbArc
 50
137.873211
 51
163.044627
  0
ENDBLK
  5
650
100
AcDbEntity
  8
0
100
AcDbBlockEnd
  0
BLOCK
  5
651
100
AcDbEntity
  8
L
100
AcDbBlockBegin
  2
B-38
 70
    66
 10
0.000000
 20
0.000000
 30
0.000000
  0
LINE
  5
652
100
AcDbEntity
  8
L
  6
CONTINUOUS
 62
     2
100
AcDbLine
 10
-47.499996
 20
40.169871
 11
-47.499996
 21
48.830121
  0
LINE
  5
653
100
AcDbEntity
  8
L
  6
CONTINUOUS
 62
     2
100
AcDbLine
 10
-47.499996
 20
48.830121
 11
-45.912921
 21
49.746421
  0
LINE
  5
654
100
AcDbEntity
  8
L
  6
CONTINUOUS
 62
     2
100
AcDbLine
 10
-40.498361
 20
36.127471
 11
-47.499996
 21
40.169871
  0
LINE
  5
655
100
AcDbEntity
  8
L
  6
BORDER
 62
     4
100
AcDbLine
 10
-39.999996
 20
49.006266
 11
-39.999996
 21
37.269576
  0
LINE
  5
656
100
AcDbEntity
  8
L
  6
BORDER
 62
     4
100
AcDbLine
 10
-55.282596
 20
44.499996
 11
-27.057991
 21
44.499996
  0
ARC
  5
657
100
AcDbEntity
  8
L
  6
CONTINUOUS
 62
     2
100
AcDbCircle
 10
-39.999996
 20
44.499996
 40
11.150002
100
AcDbArc
 50
144.698702
 51
264.894539
  0
LINE
  5
658
100
AcDbEntity
  8
L
  6
CONTINUOUS
 62
     2
100
AcDbLine
 10
46.945774
 20
49.150106
 11
47.500004
 21
48.830121
  0
LINE
  5
659
100
AcDbEntity
  8
L
  6
CONTINUOUS
 62
     2
100
AcDbLine
 10
47.500004
 20
48.830121
 11
47.500004
 21
40.169871
  0
LINE
  5
65A
100
AcDbEntity
  8
L
  6
CONTINUOUS
 62
     2
100
AcDbLine
 10
47.500004
 20
40.169871
 11
40.000004
 21
35.839746
  0
LINE
  5
65B
100
AcDbEntity
  8
L
  6
CONTINUOUS
 62
     2
100
AcDbLine
 10
40.000004
 20
35.839746
 11
32.583739
 21
40.121526
  0
LINE
  5
65C
100
AcDbEntity
  8
L
  6
BORDER
 62
     4
100
AcDbLine
 10
39.999989
 20
49.512841
 11
40.000004
 21
29.217396
  0
LINE
  5
65D
100
AcDbEntity
  8
L
  6
BORDER
 62
     4
100
AcDbLine
 10
27.612204
 20
44.499996
 11
55.282604
 21
44.499996
  0
ARC
  5
65E
100
AcDbEntity
  8
L
  6
CONTINUOUS
 62
     2
100
AcDbCircle
 10
40.000004
 20
44.499996
 40
11.150002
100
AcDbArc
 50
203.802622
 51
27.963552
  0
ARC
  5
65F
100
AcDbEntity
  8
L
  6
CONTINUOUS
 62
     2
100
AcDbCircle
 10
40.000004
 20
44.499996
 40
7.499998
100
AcDbArc
 50
213.500445
 51
37.380929
  0
LINE
  5
660
100
AcDbEntity
  8
L
  6
CONTINUOUS
 62
     2
100
AcDbLine
 10
-34.387461
 20
49.957016
 11
-32.499996
 21
48.867286
  0
LINE
  5
661
100
AcDbEntity
  8
L
  6
CONTINUOUS
 62
     2
100
AcDbLine
 10
-32.499996
 20
48.867286
 11
-32.499996
 21
42.102481
  0
ARC
  5
662
100
AcDbEntity
  8
L
  6
CONTINUOUS
 62
     2
100
AcDbCircle
 10
-39.999995
 20
44.499995
 40
7.499994
100
AcDbArc
 50
339.947471
 51
45.475868
  0
ARC
  5
663
100
AcDbEntity
  8
L
  6
CONTINUOUS
 62
     2
100
AcDbCircle
 10
-39.999995
 20
44.499995
 40
7.500000
100
AcDbArc
 50
136.862822
 51
268.908635
  0
ARC
  5
664
100
AcDbEntity
  8
L
  6
CONTINUOUS
 62
     2
100
AcDbCircle
 10
-39.999970
 20
44.500003
 40
11.149975
100
AcDbArc
 50
353.248844
 51
37.639863
  0
LINE
  5
665
100
AcDbEntity
  8
L
  6
CONTINUOUS
 62
     2
100
AcDbLine
 10
32.500004
 20
40.169866
 11
32.500004
 21
48.825831
  0
LINE
  5
666
100
AcDbEntity
  8
L
  6
CONTINUOUS
 62
     2
100
AcDbLine
 10
32.500004
 20
48.825831
 11
36.047424
 21
50.873936
  0
ARC
  5
667
100
AcDbEntity
  8
L
  6
CONTINUOUS
 62
     2
100
AcDbCircle
 10
39.999995
 20
44.499995
 40
7.499999
100
AcDbArc
 50
121.803467
 51
37.380938
  0
ARC
  5
668
100
AcDbEntity
  8
L
  6
CONTINUOUS
 62
     2
100
AcDbCircle
 10
40.000009
 20
44.499996
 40
11.150005
100
AcDbArc
 50
131.221066
 51
203.802604
  0
ENDBLK
  5
669
100
AcDbEntity
  8
0
100
AcDbBlockEnd
  0
BLOCK
  5
66A
100
AcDbEntity
  8
L
100
AcDbBlockBegin
  2
B-39
 70
    66
 10
0.000000
 20
0.000000
 30
0.000000
  0
LINE
  5
66B
100
AcDbEntity
  8
L
  6
CONTINUOUS
 62
     2
100
AcDbLine
 10
184.869990
 20
69.554905
 11
184.869980
 21
93.499995
  0
ARC
  5
66C
100
AcDbEntity
  8
L
  6
CONTINUOUS
 62
     2
100
AcDbCircle
 10
-145.800000
 20
85.300003
 40
1.299998
100
AcDbArc
 50
322.021294
 51
346.657492
  0
LINE
  5
66D
100
AcDbEntity
  8
L
  6
CONTINUOUS
 62
     2
100
AcDbLine
 10
68.749990
 20
56.000000
 11
81.300005
 21
56.000000
  0
LINE
  5
66E
100
AcDbEntity
  8
L
  6
CONTINUOUS
 62
     2
100
AcDbLine
 10
-171.856265
 20
84.999995
 11
-171.199990
 21
84.999995
  0
LINE
  5
66F
100
AcDbEntity
  8
L
  6
CONTINUOUS
 62
     2
100
AcDbLine
 10
-169.699990
 20
84.999995
 11
-85.200235
 21
85.000000
  0
LINE
  5
670
100
AcDbEntity
  8
L
  6
CONTINUOUS
 62
     2
100
AcDbLine
 10
89.200230
 20
85.000000
 11
112.618705
 21
85.000000
  0
LINE
  5
671
100
AcDbEntity
  8
L
  6
CONTINUOUS
 62
     2
100
AcDbLine
 10
-78.000000
 20
70.199995
 11
-78.000000
 21
73.499995
  0
LINE
  5
672
100
AcDbEntity
  8
L
  6
CONTINUOUS
 62
     2
100
AcDbLine
 10
77.999995
 20
59.000000
 11
77.999995
 21
74.215725
  0
ARC
  5
673
100
AcDbEntity
  8
L
  6
CONTINUOUS
 62
     2
100
AcDbCircle
 10
75.000000
 20
59.000003
 40
2.999995
100
AcDbArc
 50
269.999905
 51
359.999940
  0
LINE
  5
674
100
AcDbEntity
  8
L
  6
CONTINUOUS
 62
     2
100
AcDbLine
 10
115.618705
 20
82.000000
 11
115.618705
 21
80.000025
  0
ARC
  5
675
100
AcDbEntity
  8
L
  6
CONTINUOUS
 62
     2
100
AcDbCircle
 10
112.618710
 20
82.000003
 40
2.999997
100
AcDbArc
 50
359.999940
 51
90.000095
  0
LINE
  5
676
100
AcDbEntity
  8
L
  6
CONTINUOUS
 62
     2
100
AcDbLine
 10
-103.000000
 20
90.000000
 11
-93.489725
 21
89.999985
  0
LINE
  5
677
100
AcDbEntity
  8
L
  6
CONTINUOUS
 62
     2
100
AcDbLine
 10
-10.051970
 20
89.999990
 11
0.000000
 21
90.000000
  0
ARC
  5
678
100
AcDbEntity
  8
L
  6
CONTINUOUS
 62
     2
100
AcDbCircle
 10
-103.000000
 20
94.000003
 40
4.000002
100
AcDbArc
 50
188.702095
 51
270.000001
  0
LINE
  5
679
100
AcDbEntity
  8
L
  6
CONTINUOUS
 62
     2
100
AcDbLine
 10
-114.000000
 20
87.000000
 11
-114.000000
 21
93.499995
  0
LINE
  5
67A
100
AcDbEntity
  8
L
  6
CONTINUOUS
 62
     2
100
AcDbLine
 10
102.999995
 20
90.000000
 11
97.489755
 21
90.000000
  0
LINE
  5
67B
100
AcDbEntity
  8
L
  6
CONTINUOUS
 62
     2
100
AcDbLine
 10
14.051960
 20
89.999990
 11
0.000000
 21
90.000000
  0
ARC
  5
67C
100
AcDbEntity
  8
L
  6
CONTINUOUS
 62
     2
100
AcDbCircle
 10
103.000000
 20
94.000003
 40
4.000003
100
AcDbArc
 50
269.999929
 51
343.746826
  0
LINE
  5
67D
100
AcDbEntity
  8
L
  6
CONTINUOUS
 62
     2
100
AcDbLine
 10
113.999995
 20
87.000000
 11
113.999985
 21
93.499995
  0
ENDBLK
  5
67E
100
AcDbEntity
  8
0
100
AcDbBlockEnd
  0
BLOCK
  5
67F
100
AcDbEntity
  8
L
100
AcDbBlockBegin
  2
B-40
 70
    66
 10
0.000000
 20
0.000000
 30
0.000000
  0
ARC
  5
680
100
AcDbEntity
  8
L
  6
CONTINUOUS
 62
     2
100
AcDbCircle
 10
186.999993
 20
188.000003
 40
9.999997
100
AcDbArc
 50
359.999982
 51
90.000020
  0
LINE
  5
681
100
AcDbEntity
  8
L
  6
CONTINUOUS
 62
     2
100
AcDbLine
 10
196.999990
 20
103.499995
 11
196.999990
 21
188.000000
  0
LINE
  5
682
100
AcDbEntity
  8
L
  6
CONTINUOUS
 62
     2
100
AcDbLine
 10
185.999990
 20
106.030170
 11
185.999990
 21
188.000000
  0
ARC
  5
683
100
AcDbEntity
  8
L
  6
CONTINUOUS
 62
     2
100
AcDbCircle
 10
175.999993
 20
188.000003
 40
9.999997
100
AcDbArc
 50
359.999982
 51
90.000020
  0
LINE
  5
684
100
AcDbEntity
  8
L
  6
CONTINUOUS
 62
     2
100
AcDbLine
 10
-200.000000
 20
106.030170
 11
-200.000005
 21
188.000000
  0
LINE
  5
685
100
AcDbEntity
  8
L
  6
CONTINUOUS
 62
     2
100
AcDbLine
 10
-211.000000
 20
188.000000
 11
-211.000000
 21
103.499995
  0
ARC
  5
686
100
AcDbEntity
  8
L
  6
CONTINUOUS
 62
     2
100
AcDbCircle
 10
-201.000002
 20
188.000003
 40
9.999997
100
AcDbArc
 50
89.999991
 51
180.000018
  0
ARC
  5
687
100
AcDbEntity
  8
L
  6
CONTINUOUS
 62
     2
100
AcDbCircle
 10
-190.000007
 20
188.000003
 40
9.999997
100
AcDbArc
 50
89.999991
 51
180.000018
  0
LINE
  5
688
100
AcDbEntity
  8
L
  6
CONTINUOUS
 62
     2
100
AcDbLine
 10
186.999990
 20
198.000000
 11
-201.000000
 21
198.000000
  0
LINE
  5
689
100
AcDbEntity
  8
L
  6
BORDER
 62
     4
100
AcDbLine
 10
66.293315
 20
152.999995
 11
-70.648640
 21
152.999995
  0
CIRCLE
  5
68A
100
AcDbEntity
  8
L
  6
CONTINUOUS
 62
     2
100
AcDbCircle
 10
44.499998
 20
61.999998
 40
8.300003
  0
CIRCLE
  5
68B
100
AcDbEntity
  8
L
  6
CONTINUOUS
 62
     2
100
AcDbCircle
 10
-40.500002
 20
61.999998
 40
8.299998
  0
LINE
  5
68C
100
AcDbEntity
  8
L
  6
CONTINUOUS
 62
     2
100
AcDbLine
 10
58.642130
 20
54.857860
 11
88.098715
 21
84.314445
  0
LINE
  5
68D
100
AcDbEntity
  8
L
  6
CONTINUOUS
 62
     2
100
AcDbLine
 10
-54.642135
 20
54.857860
 11
-84.098720
 21
84.314445
  0
LINE
  5
68E
100
AcDbEntity
  8
L
  6
BORDER
 62
     4
100
AcDbLine
 10
44.499995
 20
79.417200
 11
44.499995
 21
46.105460
  0
LINE
  5
68F
100
AcDbEntity
  8
L
  6
BORDER
 62
     4
100
AcDbLine
 10
-40.500000
 20
45.615725
 11
-40.500000
 21
79.417200
  0
ARC
  5
690
100
AcDbEntity
  8
L
  6
CONTINUOUS
 62
     2
100
AcDbCircle
 10
44.499998
 20
68.999998
 40
19.999999
100
AcDbArc
 50
286.534373
 51
314.999987
  0
ARC
  5
691
100
AcDbEntity
  8
L
  6
CONTINUOUS
 62
     2
100
AcDbCircle
 10
44.499998
 20
68.999998
 40
19.999998
100
AcDbArc
 50
273.911617
 51
285.510167
  0
ARC
  5
692
100
AcDbEntity
  8
L
  6
CONTINUOUS
 62
     2
100
AcDbCircle
 10
-40.500002
 20
68.999998
 40
20.000000
100
AcDbArc
 50
225.000010
 51
266.088364
  0
LINE
  5
693
100
AcDbEntity
  8
L
  6
BORDER
 62
     4
100
AcDbLine
 10
59.131110
 20
61.999995
 11
31.144025
 21
61.999995
  0
LINE
  5
694
100
AcDbEntity
  8
L
  6
BORDER
 62
     4
100
AcDbLine
 10
-26.819105
 20
61.999995
 11
-56.088785
 21
61.999995
  0
ARC
  5
695
100
AcDbEntity
  8
L
  6
CONTINUOUS
 62
     2
100
AcDbCircle
 10
186.999993
 20
103.499998
 40
9.999997
100
AcDbArc
 50
269.999980
 51
359.999982
  0
ARC
  5
696
100
AcDbEntity
  8
L
  6
CONTINUOUS
 62
     2
100
AcDbCircle
 10
186.999993
 20
104.765088
 40
9.999997
100
AcDbArc
 50
269.999980
 51
359.999982
  0
ARC
  5
697
100
AcDbEntity
  8
L
  6
CONTINUOUS
 62
     2
100
AcDbCircle
 10
186.999993
 20
106.030173
 40
9.999997
100
AcDbArc
 50
269.999980
 51
359.999982
  0
LINE
  5
698
100
AcDbEntity
  8
L
  6
CONTINUOUS
 62
     2
100
AcDbLine
 10
113.852805
 20
93.499995
 11
186.999990
 21
93.499995
  0
ARC
  5
699
100
AcDbEntity
  8
L
  6
CONTINUOUS
 62
     2
100
AcDbCircle
 10
113.852811
 20
53.499998
 40
39.999997
100
AcDbArc
 50
90.000008
 51
135.000009
  0
ARC
  5
69A
100
AcDbEntity
  8
L
  6
CONTINUOUS
 62
     2
100
AcDbCircle
 10
116.382989
 20
56.030173
 40
40.000002
100
AcDbArc
 50
90.000006
 51
135.000002
  0
LINE
  5
69B
100
AcDbEntity
  8
L
  6
CONTINUOUS
 62
     2
100
AcDbLine
 10
116.382985
 20
96.030170
 11
186.999990
 21
96.030170
  0
LINE
  5
69C
100
AcDbEntity
  8
L
  6
CONTINUOUS
 62
     2
100
AcDbLine
 10
115.117895
 20
94.765085
 11
186.999990
 21
94.765085
  0
ARC
  5
69D
100
AcDbEntity
  8
L
  6
CONTINUOUS
 62
     2
100
AcDbCircle
 10
115.117901
 20
54.765088
 40
39.999997
100
AcDbArc
 50
90.000008
 51
135.000009
  0
ARC
  5
69E
100
AcDbEntity
  8
L
  6
CONTINUOUS
 62
     2
100
AcDbCircle
 10
175.999993
 20
106.030173
 40
9.999997
100
AcDbArc
 50
269.999980
 51
359.999982
  0
ARC
  5
69F
100
AcDbEntity
  8
L
  6
CONTINUOUS
 62
     2
100
AcDbCircle
 10
1.999998
 20
70.999998
 40
22.499992
100
AcDbArc
 50
35.294372
 51
144.705616
  0
LINE
  5
6A0
100
AcDbEntity
  8
L
  6
BORDER
 62
     4
100
AcDbLine
 10
-172.000005
 20
115.780695
 11
-172.000005
 21
98.246625
  0
LINE
  5
6A1
100
AcDbEntity
  8
L
  6
BORDER
 62
     4
100
AcDbLine
 10
-172.000005
 20
98.246625
 11
-172.000005
 21
93.499995
  0
LINE
  5
6A2
100
AcDbEntity
  8
L
  6
BORDER
 62
     4
100
AcDbLine
 10
-178.000000
 20
86.750005
 11
-178.000000
 21
100.182335
  0
LINE
  5
6A3
100
AcDbEntity
  8
L
  6
BORDER
 62
     4
100
AcDbLine
 10
-80.000000
 20
80.215720
 11
-80.000000
 21
71.613965
  0
LINE
  5
6A4
100
AcDbEntity
  8
L
  6
CONTINUOUS
 62
     2
100
AcDbLine
 10
-78.284255
 20
78.499985
 11
-83.250000
 21
78.499995
  0
LINE
  5
6A5
100
AcDbEntity
  8
L
  6
CONTINUOUS
 62
     2
100
AcDbLine
 10
-82.500000
 20
78.499995
 11
-82.499990
 21
82.686010
  0
LINE
  5
6A6
100
AcDbEntity
  8
L
  6
CONTINUOUS
 62
     2
100
AcDbLine
 10
-77.500000
 20
73.499995
 11
-82.499995
 21
73.499995
  0
LINE
  5
6A7
100
AcDbEntity
  8
L
  6
CONTINUOUS
 62
     2
100
AcDbLine
 10
-76.950115
 20
77.165840
 11
-77.500000
 21
73.499995
  0
LINE
  5
6A8
100
AcDbEntity
  8
L
  6
CONTINUOUS
 62
     2
100
AcDbLine
 10
-83.250000
 20
78.499995
 11
-82.499995
 21
73.499995
  0
ARC
  5
6A9
100
AcDbEntity
  8
L
  6
CONTINUOUS
 62
     2
100
AcDbCircle
 10
-109.852814
 20
53.499998
 40
39.999997
100
AcDbArc
 50
44.999993
 51
89.999994
  0
ARC
  5
6AA
100
AcDbEntity
  8
L
  6
CONTINUOUS
 62
     2
100
AcDbCircle
 10
-112.382992
 20
56.030173
 40
39.999997
100
AcDbArc
 50
45.000000
 51
89.999997
  0
ARC
  5
6AB
100
AcDbEntity
  8
L
  6
CONTINUOUS
 62
     2
100
AcDbCircle
 10
-111.117904
 20
54.765088
 40
39.999997
100
AcDbArc
 50
44.999993
 51
89.999994
  0
ARC
  5
6AC
100
AcDbEntity
  8
L
  6
CONTINUOUS
 62
     2
100
AcDbCircle
 10
-201.000002
 20
103.499998
 40
10.000003
100
AcDbArc
 50
180.000018
 51
270.000009
  0
ARC
  5
6AD
100
AcDbEntity
  8
L
  6
CONTINUOUS
 62
     2
100
AcDbCircle
 10
-201.000002
 20
104.765088
 40
10.000003
100
AcDbArc
 50
180.000018
 51
270.000009
  0
ARC
  5
6AE
100
AcDbEntity
  8
L
  6
CONTINUOUS
 62
     2
100
AcDbCircle
 10
-201.000002
 20
106.030173
 40
10.000003
100
AcDbArc
 50
180.000018
 51
270.000009
  0
LINE
  5
6AF
100
AcDbEntity
  8
L
  6
CONTINUOUS
 62
     2
100
AcDbLine
 10
-109.852810
 20
93.499995
 11
-201.000000
 21
93.499995
  0
LINE
  5
6B0
100
AcDbEntity
  8
L
  6
CONTINUOUS
 62
     2
100
AcDbLine
 10
-112.382990
 20
96.030170
 11
-201.000000
 21
96.030170
  0
LINE
  5
6B1
100
AcDbEntity
  8
L
  6
CONTINUOUS
 62
     2
100
AcDbLine
 10
-111.117900
 20
94.765085
 11
-201.000000
 21
94.765085
  0
ARC
  5
6B2
100
AcDbEntity
  8
L
  6
CONTINUOUS
 62
     2
100
AcDbCircle
 10
-190.000002
 20
106.030173
 40
10.000003
100
AcDbArc
 50
180.000018
 51
270.000009
  0
LINE
  5
6B3
100
AcDbEntity
  8
L
  6
CONTINUOUS
 62
     4
100
AcDbLine
 10
-97.382990
 20
96.030170
 11
101.382990
 21
96.030170
  0
ARC
  5
6B4
100
AcDbEntity
  8
L
  6
CONTINUOUS
 62
     2
100
AcDbCircle
 10
-40.500192
 20
69.000539
 40
20.000531
100
AcDbArc
 50
266.089013
 51
311.408968
  0
ARC
  5
6B5
100
AcDbEntity
  8
L
  6
CONTINUOUS
 62
     2
100
AcDbCircle
 10
44.500074
 20
69.000208
 40
20.000208
100
AcDbArc
 50
228.590647
 51
269.999774
  0
ARC
  5
6B6
100
AcDbEntity
  8
L
  6
CONTINUOUS
 62
     2
100
AcDbCircle
 10
44.500152
 20
68.997107
 40
19.997107
100
AcDbArc
 50
269.999551
 51
274.185395
  0
ENDBLK
  5
6B7
100
AcDbEntity
  8
0
100
AcDbBlockEnd
  0
BLOCK
  5
6B8
100
AcDbEntity
  8
L
100
AcDbBlockBegin
  2
B-41
 70
    66
 10
0.000000
 20
0.000000
 30
0.000000
  0
LINE
  5
6B9
100
AcDbEntity
  8
L
  6
CONTINUOUS
 62
     2
100
AcDbLine
 10
-70.499980
 20
-24.300000
 11
-70.499980
 21
-46.300000
  0
LINE
  5
6BA
100
AcDbEntity
  8
L
  6
CONTINUOUS
 62
     2
100
AcDbLine
 10
-70.499980
 20
-46.300000
 11
-75.500000
 21
-46.300000
  0
LINE
  5
6BB
100
AcDbEntity
  8
L
  6
CONTINUOUS
 62
     2
100
AcDbLine
 10
-79.499960
 20
-46.300000
 11
-84.499980
 21
-46.300000
  0
ARC
  5
6BC
100
AcDbEntity
  8
L
  6
CONTINUOUS
 62
     2
100
AcDbCircle
 10
-84.499981
 20
-45.300000
 40
0.999999
100
AcDbArc
 50
179.999997
 51
270.000039
  0
LINE
  5
6BD
100
AcDbEntity
  8
L
  6
CONTINUOUS
 62
     2
100
AcDbLine
 10
-85.499980
 20
-45.300000
 11
-85.499980
 21
-25.300000
  0
LINE
  5
6BE
100
AcDbEntity
  8
L
  6
CONTINUOUS
 62
     2
100
AcDbLine
 10
-84.499980
 20
-24.300000
 11
-84.257470
 21
-24.300000
  0
ARC
  5
6BF
100
AcDbEntity
  8
L
  6
CONTINUOUS
 62
     2
100
AcDbCircle
 10
-84.499981
 20
-25.300000
 40
0.999999
100
AcDbArc
 50
89.999961
 51
179.999997
  0
LINE
  5
6C0
100
AcDbEntity
  8
L
  6
CONTINUOUS
 62
     2
100
AcDbLine
 10
-63.499980
 20
36.699995
 11
-82.499980
 21
36.699995
  0
ARC
  5
6C1
100
AcDbEntity
  8
L
  6
CONTINUOUS
 62
     2
100
AcDbCircle
 10
-82.499981
 20
35.700000
 40
0.999999
100
AcDbArc
 50
89.999961
 51
180.000284
  0
ARC
  5
6C2
100
AcDbEntity
  8
L
  6
CONTINUOUS
 62
     2
100
AcDbCircle
 10
-63.499981
 20
35.700000
 40
0.999995
100
AcDbArc
 50
359.999716
 51
89.999961
  0
LINE
  5
6C3
100
AcDbEntity
  8
L
  6
CONTINUOUS
 62
     2
100
AcDbLine
 10
-62.499980
 20
35.699995
 11
-62.499980
 21
24.699995
  0
LINE
  5
6C4
100
AcDbEntity
  8
L
  6
CONTINUOUS
 62
     2
100
AcDbLine
 10
-63.499980
 20
23.699995
 11
-68.509990
 21
23.699995
  0
LINE
  5
6C5
100
AcDbEntity
  8
L
  6
CONTINUOUS
 62
     2
100
AcDbLine
 10
-80.020755
 20
23.699995
 11
-82.499980
 21
23.699995
  0
ARC
  5
6C6
100
AcDbEntity
  8
L
  6
CONTINUOUS
 62
     2
100
AcDbCircle
 10
-63.499981
 20
24.700000
 40
1.000001
100
AcDbArc
 50
270.000039
 51
359.999716
  0
LINE
  5
6C7
100
AcDbEntity
  8
L
  6
CONTINUOUS
 62
     2
100
AcDbLine
 10
-83.499980
 20
24.699995
 11
-83.499980
 21
35.699995
  0
ARC
  5
6C8
100
AcDbEntity
  8
L
  6
CONTINUOUS
 62
     2
100
AcDbCircle
 10
-82.499981
 20
24.700000
 40
0.999999
100
AcDbArc
 50
180.000284
 51
270.000039
  0
LINE
  5
6C9
100
AcDbEntity
  8
L
  6
BORDER
 62
     4
100
AcDbLine
 10
-78.499980
 20
-35.300000
 11
-72.684685
 21
42.954260
  0
LINE
  5
6CA
100
AcDbEntity
  8
L
  6
CONTINUOUS
 62
     2
100
AcDbLine
 10
-70.350030
 20
24.804665
 11
-73.772930
 21
-40.508215
  0
LINE
  5
6CB
100
AcDbEntity
  8
L
  6
CONTINUOUS
 62
     2
100
AcDbLine
 10
-77.741095
 20
24.508305
 11
-83.899150
 21
-39.445530
  0
ARC
  5
6CC
100
AcDbEntity
  8
L
  6
CONTINUOUS
 62
     2
100
AcDbCircle
 10
-68.509993
 20
21.700000
 40
1.999995
100
AcDbArc
 50
89.999924
 51
177.000194
  0
ARC
  5
6CD
100
AcDbEntity
  8
L
  6
CONTINUOUS
 62
     2
100
AcDbCircle
 10
-80.020756
 20
21.700000
 40
1.999999
100
AcDbArc
 50
354.499899
 51
89.999963
  0
ARC
  5
6CE
100
AcDbEntity
  8
L
  6
CONTINUOUS
 62
     2
100
AcDbCircle
 10
-84.257474
 20
-22.300000
 40
2.000000
100
AcDbArc
 50
270.000100
 51
354.500047
  0
LINE
  5
6CF
100
AcDbEntity
  8
L
  6
CONTINUOUS
 62
     2
100
AcDbLine
 10
-70.499980
 20
-24.300000
 11
-70.815930
 21
-24.300000
  0
ARC
  5
6D0
100
AcDbEntity
  8
L
  6
CONTINUOUS
 62
     2
100
AcDbCircle
 10
-70.815935
 20
-22.300000
 40
2.000001
100
AcDbArc
 50
177.000055
 51
270.000140
  0
ARC
  5
6D1
100
AcDbEntity
  8
L
  6
CONTINUOUS
 62
     2
100
AcDbCircle
 10
-77.499981
 20
-57.116724
 40
11.000066
100
AcDbArc
 50
79.524484
 51
100.475509
  0
ARC
  5
6D2
100
AcDbEntity
  8
L
  6
CONTINUOUS
 62
     2
100
AcDbCircle
 10
-71.775670
 20
-40.612885
 40
2.000000
100
AcDbArc
 50
177.000054
 51
270.000157
  0
ARC
  5
6D3
100
AcDbEntity
  8
L
  6
CONTINUOUS
 62
     2
100
AcDbCircle
 10
-85.889942
 20
-39.253836
 40
2.000001
100
AcDbArc
 50
294.499994
 51
354.499929
  0
LINE
  5
6D4
100
AcDbEntity
  8
L
  6
BORDER
 62
     4
100
AcDbLine
 10
-65.499980
 20
-35.300000
 11
-90.499980
 21
-35.300000
  0
LINE
  5
6D5
100
AcDbEntity
  8
L
  6
CONTINUOUS
 62
     2
100
AcDbLine
 10
-63.499980
 20
26.699995
 11
-68.352770
 21
26.699995
  0
LINE
  5
6D6
100
AcDbEntity
  8
L
  6
CONTINUOUS
 62
     2
100
AcDbLine
 10
-79.731890
 20
26.699995
 11
-82.499980
 21
26.699995
  0
ARC
  5
6D7
100
AcDbEntity
  8
L
  6
CONTINUOUS
 62
     2
100
AcDbCircle
 10
-79.731889
 20
24.700000
 40
1.999995
100
AcDbArc
 50
354.499907
 51
90.000019
  0
ARC
  5
6D8
100
AcDbEntity
  8
L
  6
CONTINUOUS
 62
     2
100
AcDbCircle
 10
-68.352769
 20
24.700000
 40
2.000001
100
AcDbArc
 50
90.000024
 51
177.000199
  0
ARC
  5
6D9
100
AcDbEntity
  8
L
  6
CONTINUOUS
 62
     2
100
AcDbCircle
 10
-82.499981
 20
27.700000
 40
1.000002
100
AcDbArc
 50
210.000277
 51
270.000039
  0
ARC
  5
6DA
100
AcDbEntity
  8
L
  6
CONTINUOUS
 62
     2
100
AcDbCircle
 10
-63.499981
 20
27.700000
 40
1.000005
100
AcDbArc
 50
270.000039
 51
329.999762
  0
LINE
  5
6DB
100
AcDbEntity
  8
L
  6
BORDER
 62
     4
100
AcDbLine
 10
-59.499980
 20
32.699995
 11
-86.499980
 21
32.699995
  0
ARC
  5
6DC
100
AcDbEntity
  8
L
  6
CONTINUOUS
 62
     2
100
AcDbCircle
 10
-68.999988
 20
-28.299978
 40
2.499978
100
AcDbArc
 50
53.129930
 51
126.870070
  0
ARC
  5
6DD
100
AcDbEntity
  8
L
  6
CONTINUOUS
 62
     2
100
AcDbCircle
 10
-68.999990
 20
-42.300030
 40
2.499970
100
AcDbArc
 50
233.129873
 51
306.870127
  0
ENDBLK
  5
6DE
100
AcDbEntity
  8
0
100
AcDbBlockEnd
  0
BLOCK
  5
6DF
100
AcDbEntity
  8
L
100
AcDbBlockBegin
  2
B-42
 70
    66
 10
0.000000
 20
0.000000
 30
0.000000
  0
LINE
  5
6E0
100
AcDbEntity
  8
L
  6
CONTINUOUS
 62
     2
100
AcDbLine
 10
-4.924995
 20
38.771410
 11
-4.924995
 21
48.473480
  0
LINE
  5
6E1
100
AcDbEntity
  8
L
  6
CONTINUOUS
 62
     2
100
AcDbLine
 10
-4.424995
 20
48.973480
 11
-3.452435
 21
48.973485
  0
LINE
  5
6E2
100
AcDbEntity
  8
L
  6
CONTINUOUS
 62
     2
100
AcDbLine
 10
8.452450
 20
48.973485
 11
9.425005
 21
48.973480
  0
ARC
  5
6E3
100
AcDbEntity
  8
L
  6
CONTINUOUS
 62
     2
100
AcDbCircle
 10
9.425004
 20
48.473470
 40
0.500010
100
AcDbArc
 50
0.001090
 51
89.999924
  0
ARC
  5
6E4
100
AcDbEntity
  8
L
  6
CONTINUOUS
 62
     2
100
AcDbCircle
 10
-4.424996
 20
48.473470
 40
0.500010
100
AcDbArc
 50
89.999924
 51
179.998910
  0
LINE
  5
6E5
100
AcDbEntity
  8
L
  6
CONTINUOUS
 62
     2
100
AcDbLine
 10
9.925005
 20
48.473480
 11
9.924995
 21
36.999985
  0
LINE
  5
6E6
100
AcDbEntity
  8
L
  6
CONTINUOUS
 62
     2
100
AcDbLine
 10
16.000000
 20
36.999980
 11
16.000005
 21
44.841930
  0
LINE
  5
6E7
100
AcDbEntity
  8
L
  6
CONTINUOUS
 62
     2
100
AcDbLine
 10
-10.999995
 20
44.841930
 11
-10.999995
 21
41.910560
  0
ARC
  5
6E8
100
AcDbEntity
  8
L
  6
CONTINUOUS
 62
     2
100
AcDbCircle
 10
19.000004
 20
44.841924
 40
29.999999
100
AcDbArc
 50
166.243159
 51
179.999989
  0
LINE
  5
6E9
100
AcDbEntity
  8
L
  6
CONTINUOUS
 62
     2
100
AcDbLine
 10
-5.270505
 20
69.632220
 11
-10.139405
 21
51.975980
  0
LINE
  5
6EA
100
AcDbEntity
  8
L
  6
CONTINUOUS
 62
     2
100
AcDbLine
 10
10.270515
 20
69.632220
 11
15.139415
 21
51.975980
  0
ARC
  5
6EB
100
AcDbEntity
  8
L
  6
CONTINUOUS
 62
     2
100
AcDbCircle
 10
-13.999996
 20
44.841924
 40
30.000001
100
AcDbArc
 50
0.000011
 51
13.756840
  0
ARC
  5
6EC
100
AcDbEntity
  8
L
  6
CONTINUOUS
 62
     2
100
AcDbCircle
 10
2.500004
 20
67.729795
 40
8.000004
100
AcDbArc
 50
157.645579
 51
166.243092
  0
ARC
  5
6ED
100
AcDbEntity
  8
L
  6
CONTINUOUS
 62
     2
100
AcDbCircle
 10
2.500004
 20
67.729795
 40
8.000003
100
AcDbArc
 50
13.756906
 51
18.713155
  0
LINE
  5
6EE
100
AcDbEntity
  8
L
  6
CONTINUOUS
 62
     4
100
AcDbLine
 10
-4.299190
 20
69.394420
 11
-9.168090
 21
51.738175
  0
ARC
  5
6EF
100
AcDbEntity
  8
L
  6
CONTINUOUS
 62
     4
100
AcDbCircle
 10
19.000004
 20
44.841924
 40
28.999999
100
AcDbArc
 50
166.243164
 51
179.999989
  0
LINE
  5
6F0
100
AcDbEntity
  8
L
  6
CONTINUOUS
 62
     4
100
AcDbLine
 10
-9.999995
 20
44.841930
 11
-9.999995
 21
41.495440
  0
LINE
  5
6F1
100
AcDbEntity
  8
L
  6
CONTINUOUS
 62
     4
100
AcDbLine
 10
15.000000
 20
36.999980
 11
15.000005
 21
44.841930
  0
ARC
  5
6F2
100
AcDbEntity
  8
L
  6
CONTINUOUS
 62
     4
100
AcDbCircle
 10
-13.999996
 20
44.841924
 40
28.999998
100
AcDbArc
 50
0.000011
 51
13.756835
  0
LINE
  5
6F3
100
AcDbEntity
  8
L
  6
CONTINUOUS
 62
     4
100
AcDbLine
 10
14.168100
 20
51.738175
 11
9.299200
 21
69.394415
  0
ARC
  5
6F4
100
AcDbEntity
  8
L
  6
CONTINUOUS
 62
     4
100
AcDbCircle
 10
2.500004
 20
67.729795
 40
6.999998
100
AcDbArc
 50
13.756892
 51
26.145457
  0
ARC
  5
6F5
100
AcDbEntity
  8
L
  6
CONTINUOUS
 62
     4
100
AcDbCircle
 10
2.500004
 20
67.729795
 40
7.000000
100
AcDbArc
 50
150.213282
 51
166.243105
  0
LINE
  5
6F6
100
AcDbEntity
  8
L
  6
BORDER
 62
     4
100
AcDbLine
 10
-0.499995
 20
69.960860
 11
5.500005
 21
69.960860
  0
ENDBLK
  5
6F7
100
AcDbEntity
  8
0
100
AcDbBlockEnd
  0
BLOCK
  5
6F8
100
AcDbEntity
  8
L
100
AcDbBlockBegin
  2
B-43
 70
    66
 10
0.000000
 20
0.000000
 30
0.000000
  0
LINE
  5
6F9
100
AcDbEntity
  8
L
  6
CONTINUOUS
 62
     2
100
AcDbLine
 10
-112.000000
 20
86.999995
 11
-112.000000
 21
85.749995
  0
LINE
  5
6FA
100
AcDbEntity
  8
L
  6
CONTINUOUS
 62
     2
100
AcDbLine
 10
-66.500000
 20
-86.250000
 11
-54.750005
 21
-86.250000
  0
ARC
  5
6FB
100
AcDbEntity
  8
L
  6
CONTINUOUS
 62
     2
100
AcDbCircle
 10
-66.500001
 20
-84.000003
 40
2.249999
100
AcDbArc
 50
179.999936
 51
270.000031
  0
ARC
  5
6FC
100
AcDbEntity
  8
L
  6
CONTINUOUS
 62
     2
100
AcDbCircle
 10
-54.750006
 20
-84.000003
 40
2.249996
100
AcDbArc
 50
270.000031
 51
333.612505
  0
LINE
  5
6FD
100
AcDbEntity
  8
L
  6
CONTINUOUS
 62
     2
100
AcDbLine
 10
-87.995320
 20
86.999995
 11
-112.000000
 21
86.999995
  0
LINE
  5
6FE
100
AcDbEntity
  8
L
  6
CONTINUOUS
 62
     2
100
AcDbLine
 10
-86.189815
 20
85.749995
 11
-112.000000
 21
85.749995
  0
LINE
  5
6FF
100
AcDbEntity
  8
L
  6
CONTINUOUS
 62
     2
100
AcDbLine
 10
-68.750000
 20
-3.999980
 11
-68.750000
 21
-17.308195
  0
LINE
  5
700
100
AcDbEntity
  8
L
  6
CONTINUOUS
 62
     2
100
AcDbLine
 10
-68.750000
 20
-44.787470
 11
-68.750000
 21
-84.000000
  0
LINE
  5
701
100
AcDbEntity
  8
L
  6
BORDER
 62
     4
100
AcDbLine
 10
-101.100000
 20
91.999995
 11
-101.100000
 21
80.749995
  0
LINE
  5
702
100
AcDbEntity
  8
L
  6
BORDER
 62
     4
100
AcDbLine
 10
-62.500000
 20
-76.500000
 11
-84.768775
 21
-76.500000
  0
LINE
  5
703
100
AcDbEntity
  8
L
  6
BORDER
 62
     4
100
AcDbLine
 10
-60.000005
 20
-80.000000
 11
-60.000005
 21
-95.836105
  0
LINE
  5
704
100
AcDbEntity
  8
L
  6
CONTINUOUS
 62
     2
100
AcDbLine
 10
-70.499995
 20
-13.499995
 11
-70.499995
 21
-15.618775
  0
LINE
  5
705
100
AcDbEntity
  8
L
  6
CONTINUOUS
 62
     2
100
AcDbLine
 10
-68.750000
 20
-3.999980
 11
-67.499995
 21
-3.999980
  0
ENDBLK
  5
706
100
AcDbEntity
  8
0
100
AcDbBlockEnd
  0
BLOCK
  5
707
100
AcDbEntity
  8
L
100
AcDbBlockBegin
  2
B-44
 70
    66
 10
0.000000
 20
0.000000
 30
0.000000
  0
LINE
  5
708
100
AcDbEntity
  8
L
  6
CONTINUOUS
 62
     2
100
AcDbLine
 10
-188.518540
 20
-73.500065
 11
-224.499980
 21
-73.500065
  0
LINE
  5
709
100
AcDbEntity
  8
L
  6
CONTINUOUS
 62
     2
100
AcDbLine
 10
-225.499985
 20
-72.500065
 11
-225.499985
 21
-62.500065
  0
LINE
  5
70A
100
AcDbEntity
  8
L
  6
CONTINUOUS
 62
     2
100
AcDbLine
 10
-224.499980
 20
-61.500065
 11
-209.899560
 21
-61.500065
  0
LINE
  5
70B
100
AcDbEntity
  8
L
  6
CONTINUOUS
 62
     2
100
AcDbLine
 10
-225.499985
 20
-72.500065
 11
-224.499985
 21
-73.500065
  0
LINE
  5
70C
100
AcDbEntity
  8
L
  6
CONTINUOUS
 62
     2
100
AcDbLine
 10
-224.499985
 20
-61.500065
 11
-225.499985
 21
-62.500065
  0
LINE
  5
70D
100
AcDbEntity
  8
L
  6
DIVIDE
 62
     4
100
AcDbLine
 10
238.661465
 20
-97.500000
 11
238.661465
 21
-97.500000
  0
LINE
  5
70E
100
AcDbEntity
  8
L
  6
DIVIDE
 62
     4
100
AcDbLine
 10
238.661465
 20
-97.500000
 11
238.661465
 21
-97.500000
  0
LINE
  5
70F
100
AcDbEntity
  8
L
  6
CONTINUOUS
 62
     2
100
AcDbLine
 10
-224.499985
 20
-61.500065
 11
-224.499985
 21
-73.500065
  0
LINE
  5
710
100
AcDbEntity
  8
L
  6
BORDER
 62
     4
100
AcDbLine
 10
-228.499985
 20
-67.500065
 11
-209.899560
 21
-67.500065
  0
TEXT
  5
711
100
AcDbEntity
  8
L
 62
     1
100
AcDbText
 10
-9.461725
 20
249.240065
 30
0.000000
 40
10.000000
  1
schs
 50
90.000000
 41
0.899183
 51
0.000000
  7
TXT8
 72
     1
 11
-14.461725
 21
265.740065
 31
0.000000
100
AcDbText
 73
     2
  0
ENDBLK
  5
712
100
AcDbEntity
  8
0
100
AcDbBlockEnd
  0
BLOCK
  5
713
100
AcDbEntity
  8
L
100
AcDbBlockBegin
  2
B-45
 70
    66
 10
0.000000
 20
0.000000
 30
0.000000
  0
ARC
  5
714
100
AcDbEntity
  8
L
  6
CONTINUOUS
 62
     2
100
AcDbCircle
 10
-175.000002
 20
80.000003
 40
14.999992
100
AcDbArc
 50
126.844278
 51
179.403342
  0
ARC
  5
715
100
AcDbEntity
  8
L
  6
CONTINUOUS
 62
     2
100
AcDbCircle
 10
-207.000002
 20
-61.425821
 40
22.000004
100
AcDbArc
 50
329.867285
 51
340.707890
  0
LINE
  5
716
100
AcDbEntity
  8
L
  6
BORDER
 62
     4
100
AcDbLine
 10
-174.999995
 20
-102.061275
 11
-174.999995
 21
-96.500215
  0
LINE
  5
717
100
AcDbEntity
  8
L
  6
BORDER
 62
     4
100
AcDbLine
 10
-174.999995
 20
-77.500215
 11
-174.999995
 21
-74.749985
  0
LINE
  5
718
100
AcDbEntity
  8
L
  6
BORDER
 62
     4
100
AcDbLine
 10
-193.999995
 20
-79.999995
 11
-176.499860
 21
-79.999995
  0
LINE
  5
719
100
AcDbEntity
  8
L
  6
CONTINUOUS
 62
     2
100
AcDbLine
 10
-179.151065
 20
-94.414180
 11
-176.499860
 21
-95.177685
  0
ARC
  5
71A
100
AcDbEntity
  8
L
  6
CONTINUOUS
 62
     2
100
AcDbCircle
 10
-175.000002
 20
-79.999997
 40
15.000000
100
AcDbArc
 50
149.867268
 51
253.934412
  0
ARC
  5
71B
100
AcDbEntity
  8
L
  6
CONTINUOUS
 62
     2
100
AcDbCircle
 10
174.999998
 20
80.000003
 40
14.999990
100
AcDbArc
 50
359.999968
 51
48.852514
  0
LINE
  5
71C
100
AcDbEntity
  8
L
  6
CONTINUOUS
 62
     2
100
AcDbLine
 10
189.999995
 20
59.999995
 11
189.999995
 21
79.999995
  0
ARC
  5
71D
100
AcDbEntity
  8
L
  6
CONTINUOUS
 62
     2
100
AcDbCircle
 10
153.999998
 20
60.000003
 40
35.999994
100
AcDbArc
 50
343.042270
 51
359.999987
  0
LINE
  5
71E
100
AcDbEntity
  8
L
  6
BORDER
 62
     4
100
AcDbLine
 10
199.945870
 20
79.999995
 11
184.869985
 21
79.999995
  0
ARC
  5
71F
100
AcDbEntity
  8
L
  6
CONTINUOUS
 62
     2
100
AcDbCircle
 10
-175.000002
 20
-79.999997
 40
6.500009
100
AcDbArc
 50
152.513491
 51
256.658938
  0
ARC
  5
720
100
AcDbEntity
  8
L
  6
CONTINUOUS
 62
     2
100
AcDbCircle
 10
-175.000002
 20
-79.999997
 40
6.500007
100
AcDbArc
 50
126.128838
 51
132.598624
  0
ENDBLK
  5
721
100
AcDbEntity
  8
0
100
AcDbBlockEnd
  0
BLOCK
  5
722
100
AcDbEntity
  8
L
100
AcDbBlockBegin
  2
B-46
 70
    66
 10
0.000000
 20
0.000000
 30
0.000000
  0
ARC
  5
723
100
AcDbEntity
  8
L
  6
CONTINUOUS
 62
     2
100
AcDbCircle
 10
3.791141
 20
41.002210
 40
9.208862
100
AcDbArc
 50
48.234574
 51
49.616936
  0
ARC
  5
724
100
AcDbEntity
  8
L
  6
CONTINUOUS
 62
     2
100
AcDbCircle
 10
1.208869
 20
41.002210
 40
9.208862
100
AcDbArc
 50
130.383064
 51
131.765405
  0
ARC
  5
725
100
AcDbEntity
  8
L
  6
CONTINUOUS
 62
     2
100
AcDbCircle
 10
2.500005
 20
39.484220
 40
11.201685
100
AcDbArc
 50
118.372403
 51
131.517340
  0
ARC
  5
726
100
AcDbEntity
  8
L
  6
CONTINUOUS
 62
     2
100
AcDbCircle
 10
2.500005
 20
39.484220
 40
11.201687
100
AcDbArc
 50
48.482677
 51
61.627609
  0
ARC
  5
727
100
AcDbEntity
  8
L
  6
CONTINUOUS
 62
     4
100
AcDbCircle
 10
2.500005
 20
46.571725
 40
5.249999
100
AcDbArc
 50
162.473966
 51
270.000000
  0
ARC
  5
728
100
AcDbEntity
  8
L
  6
CONTINUOUS
 62
     4
100
AcDbCircle
 10
2.500005
 20
46.571725
 40
5.250000
100
AcDbArc
 50
270.000000
 51
126.721682
  0
LINE
  5
729
100
AcDbEntity
  8
L
  6
CONTINUOUS
 62
     2
100
AcDbLine
 10
8.500005
 20
46.571725
 11
8.500005
 21
43.664555
  0
LINE
  5
72A
100
AcDbEntity
  8
L
  6
CONTINUOUS
 62
     2
100
AcDbLine
 10
-3.499995
 20
46.571725
 11
-3.499995
 21
43.664555
  0
ARC
  5
72B
100
AcDbEntity
  8
L
  6
CONTINUOUS
 62
     2
100
AcDbCircle
 10
2.500005
 20
43.664555
 40
6.000000
100
AcDbArc
 50
180.000000
 51
0.000000
  0
CIRCLE
  5
72C
100
AcDbEntity
  8
L
  6
CONTINUOUS
 62
     2
100
AcDbCircle
 10
2.500005
 20
46.571725
 40
6.000000
  0
ARC
  5
72D
100
AcDbEntity
  8
L
  6
CONTINUOUS
 62
     2
100
AcDbCircle
 10
4.055463
 20
30.941405
 40
8.944538
100
AcDbArc
 50
309.303557
 51
347.464091
  0
ARC
  5
72E
100
AcDbEntity
  8
L
  6
CONTINUOUS
 62
     2
100
AcDbCircle
 10
2.500005
 20
32.841563
 40
11.400159
100
AcDbArc
 50
270.000000
 51
309.303556
  0
ARC
  5
72F
100
AcDbEntity
  8
L
  6
CONTINUOUS
 62
     2
100
AcDbCircle
 10
2.500005
 20
32.841563
 40
11.400158
100
AcDbArc
 50
230.696444
 51
270.000000
  0
ARC
  5
730
100
AcDbEntity
  8
L
  6
CONTINUOUS
 62
     2
100
AcDbCircle
 10
0.944547
 20
30.941405
 40
8.944543
100
AcDbArc
 50
211.843707
 51
230.696443
  0
LINE
  5
731
100
AcDbEntity
  8
L
  6
CONTINUOUS
 62
     2
100
AcDbLine
 10
9.925000
 20
28.999985
 11
9.925005
 21
24.192085
  0
LINE
  5
732
100
AcDbEntity
  8
L
  6
CONTINUOUS
 62
     2
100
AcDbLine
 10
-4.924995
 20
27.228570
 11
-4.924995
 21
24.192085
  0
LINE
  5
733
100
AcDbEntity
  8
L
  6
BORDER
 62
     4
100
AcDbLine
 10
2.500005
 20
23.941405
 11
2.500005
 21
79.811830
  0
ENDBLK
  5
734
100
AcDbEntity
  8
0
100
AcDbBlockEnd
  0
BLOCK
  5
735
100
AcDbEntity
  8
L
100
AcDbBlockBegin
  2
B-47
 70
    66
 10
0.000000
 20
0.000000
 30
0.000000
  0
ARC
  5
736
100
AcDbEntity
  8
L
  6
CONTINUOUS
 62
     2
100
AcDbCircle
 10
2.500005
 20
56.960860
 40
7.500002
100
AcDbArc
 50
304.658871
 51
0.000000
  0
ARC
  5
737
100
AcDbEntity
  8
L
  6
CONTINUOUS
 62
     2
100
AcDbCircle
 10
2.500005
 20
56.960860
 40
7.500000
100
AcDbArc
 50
180.000000
 51
235.341108
  0
LINE
  5
738
100
AcDbEntity
  8
L
  6
CONTINUOUS
 62
     2
100
AcDbLine
 10
10.000005
 20
59.058300
 11
10.000005
 21
56.960860
  0
LINE
  5
739
100
AcDbEntity
  8
L
  6
CONTINUOUS
 62
     2
100
AcDbLine
 10
-4.999995
 20
59.058300
 11
-4.999995
 21
56.960860
  0
ARC
  5
73A
100
AcDbEntity
  8
L
  6
CONTINUOUS
 62
     2
100
AcDbCircle
 10
2.500005
 20
59.058300
 40
7.500001
100
AcDbArc
 50
289.855103
 51
0.000000
  0
ARC
  5
73B
100
AcDbEntity
  8
L
  6
CONTINUOUS
 62
     2
100
AcDbCircle
 10
2.500005
 20
59.058300
 40
7.500000
100
AcDbArc
 50
180.000000
 51
250.528772
  0
ARC
  5
73C
100
AcDbEntity
  8
L
  6
CONTINUOUS
 62
     2
100
AcDbCircle
 10
2.500005
 20
59.058300
 40
7.500001
100
AcDbArc
 50
138.716707
 51
161.282679
  0
ARC
  5
73D
100
AcDbEntity
  8
L
  6
CONTINUOUS
 62
     2
100
AcDbCircle
 10
2.500005
 20
59.058300
 40
7.499998
100
AcDbArc
 50
18.717164
 51
41.282833
  0
ENDBLK
  5
73E
100
AcDbEntity
  8
0
100
AcDbBlockEnd
  0
BLOCK
  5
73F
100
AcDbEntity
  8
L
100
AcDbBlockBegin
  2
B-48
 70
    66
 10
0.000000
 20
0.000000
 30
0.000000
  0
LINE
  5
740
100
AcDbEntity
  8
L
  6
CONTINUOUS
 62
     2
100
AcDbLine
 10
-5.005550
 20
60.768405
 11
-1.252775
 21
67.268405
  0
LINE
  5
741
100
AcDbEntity
  8
L
  6
CONTINUOUS
 62
     2
100
AcDbLine
 10
-1.252775
 20
67.268405
 11
6.252780
 21
67.268405
  0
LINE
  5
742
100
AcDbEntity
  8
L
  6
CONTINUOUS
 62
     2
100
AcDbLine
 10
6.252780
 20
67.268405
 11
10.005555
 21
60.768405
  0
LINE
  5
743
100
AcDbEntity
  8
L
  6
CONTINUOUS
 62
     2
100
AcDbLine
 10
10.005555
 20
60.768405
 11
6.252780
 21
54.268405
  0
LINE
  5
744
100
AcDbEntity
  8
L
  6
CONTINUOUS
 62
     2
100
AcDbLine
 10
6.252780
 20
54.268405
 11
-1.252775
 21
54.268405
  0
LINE
  5
745
100
AcDbEntity
  8
L
  6
CONTINUOUS
 62
     2
100
AcDbLine
 10
-1.252775
 20
54.268405
 11
-5.005550
 21
60.768405
  0
CIRCLE
  5
746
100
AcDbEntity
  8
L
  6
CONTINUOUS
 62
     2
100
AcDbCircle
 10
2.500005
 20
60.768405
 40
6.500000
  0
ARC
  5
747
100
AcDbEntity
  8
L
  6
CONTINUOUS
 62
     4
100
AcDbCircle
 10
2.500005
 20
60.768405
 40
3.233205
100
AcDbArc
 50
270.000000
 51
106.741992
  0
ARC
  5
748
100
AcDbEntity
  8
L
  6
CONTINUOUS
 62
     4
100
AcDbCircle
 10
2.500005
 20
60.768405
 40
3.233205
100
AcDbArc
 50
155.153445
 51
270.000000
  0
CIRCLE
  5
749
100
AcDbEntity
  8
L
  6
CONTINUOUS
 62
     2
100
AcDbCircle
 10
2.500005
 20
60.768405
 40
4.000000
  0
LINE
  5
74A
100
AcDbEntity
  8
L
  6
CONTINUOUS
 62
     2
100
AcDbLine
 10
10.005555
 20
59.058305
 11
6.252780
 21
52.558305
  0
LINE
  5
74B
100
AcDbEntity
  8
L
  6
CONTINUOUS
 62
     2
100
AcDbLine
 10
6.252780
 20
52.558305
 11
-1.252775
 21
52.558305
  0
LINE
  5
74C
100
AcDbEntity
  8
L
  6
CONTINUOUS
 62
     2
100
AcDbLine
 10
-1.252775
 20
52.558305
 11
-5.005550
 21
59.058305
  0
LINE
  5
74D
100
AcDbEntity
  8
L
  6
CONTINUOUS
 62
     2
100
AcDbLine
 10
10.005555
 20
60.768405
 11
10.005555
 21
59.058305
  0
LINE
  5
74E
100
AcDbEntity
  8
L
  6
CONTINUOUS
 62
     2
100
AcDbLine
 10
6.252780
 20
54.268405
 11
6.252780
 21
52.558305
  0
LINE
  5
74F
100
AcDbEntity
  8
L
  6
CONTINUOUS
 62
     2
100
AcDbLine
 10
-1.252775
 20
52.558305
 11
-1.252775
 21
54.268405
  0
LINE
  5
750
100
AcDbEntity
  8
L
  6
CONTINUOUS
 62
     2
100
AcDbLine
 10
-5.005550
 20
60.768405
 11
-5.005550
 21
59.058305
  0
LINE
  5
751
100
AcDbEntity
  8
L
  6
BORDER
 62
     4
100
AcDbLine
 10
16.555125
 20
60.768400
 11
-9.884700
 21
60.768400
  0
ENDBLK
  5
752
100
AcDbEntity
  8
0
100
AcDbBlockEnd
  0
BLOCK
  5
753
100
AcDbEntity
  8
L
100
AcDbBlockBegin
  2
B-49
 70
    66
 10
0.000000
 20
0.000000
 30
0.000000
  0
LINE
  5
754
100
AcDbEntity
  8
L
  6
BORDER
 62
     4
100
AcDbLine
 10
-7.374895
 20
46.571725
 11
11.982465
 21
46.571725
  0
ENDBLK
  5
755
100
AcDbEntity
  8
0
100
AcDbBlockEnd
  0
BLOCK
  5
756
100
AcDbEntity
  8
L
100
AcDbBlockBegin
  2
B-50
 70
    66
 10
0.000000
 20
0.000000
 30
0.000000
  0
LINE
  5
757
100
AcDbEntity
  8
L
  6
BORDER
 62
     4
100
AcDbLine
 10
19.750000
 20
32.999969
 11
-43.074750
 21
32.999994
  0
LINE
  5
758
100
AcDbEntity
  8
L
  6
CONTINUOUS
 62
     2
100
AcDbLine
 10
19.750005
 20
36.999974
 11
2.392620
 21
36.999994
  0
LINE
  5
759
100
AcDbEntity
  8
L
  6
CONTINUOUS
 62
     2
100
AcDbLine
 10
2.392620
 20
28.999994
 11
19.750005
 21
28.999974
  0
ARC
  5
75A
100
AcDbEntity
  8
L
  6
CONTINUOUS
 62
     2
100
AcDbCircle
 10
2.392621
 20
12.999987
 40
16.000002
100
AcDbArc
 50
90.000005
 51
122.023976
  0
ARC
  5
75B
100
AcDbEntity
  8
L
  6
CONTINUOUS
 62
     2
100
AcDbCircle
 10
2.392621
 20
52.999987
 40
15.999993
100
AcDbArc
 50
237.976008
 51
269.999995
  0
ARC
  5
75C
100
AcDbEntity
  8
L
  6
CONTINUOUS
 62
     2
100
AcDbCircle
 10
-22.000001
 20
13.999987
 40
30.000005
100
AcDbArc
 50
57.976002
 51
89.999990
  0
ARC
  5
75D
100
AcDbEntity
  8
L
  6
CONTINUOUS
 62
     2
100
AcDbCircle
 10
-22.000001
 20
13.999987
 40
30.000007
100
AcDbArc
 50
89.999990
 51
105.277384
  0
ARC
  5
75E
100
AcDbEntity
  8
L
  6
CONTINUOUS
 62
     2
100
AcDbCircle
 10
-22.000001
 20
13.999987
 40
30.000002
100
AcDbArc
 50
105.277384
 51
122.166941
  0
ARC
  5
75F
100
AcDbEntity
  8
L
  6
CONTINUOUS
 62
     2
100
AcDbCircle
 10
-34.777318
 20
34.315995
 40
6.000002
100
AcDbArc
 50
122.166869
 51
160.791717
  0
ARC
  5
760
100
AcDbEntity
  8
L
  6
CONTINUOUS
 62
     2
100
AcDbCircle
 10
-31.000001
 20
32.999987
 40
9.999995
100
AcDbArc
 50
179.999962
 51
199.208182
  0
ARC
  5
761
100
AcDbEntity
  8
L
  6
CONTINUOUS
 62
     2
100
AcDbCircle
 10
-34.777318
 20
31.683979
 40
5.999991
100
AcDbArc
 50
199.208164
 51
237.833063
  0
ARC
  5
762
100
AcDbEntity
  8
L
  6
CONTINUOUS
 62
     2
100
AcDbCircle
 10
-22.000001
 20
51.999987
 40
29.999994
100
AcDbArc
 50
237.833046
 51
254.722611
  0
ARC
  5
763
100
AcDbEntity
  8
L
  6
CONTINUOUS
 62
     2
100
AcDbCircle
 10
-31.000001
 20
32.999987
 40
9.999995
100
AcDbArc
 50
160.791747
 51
179.999962
  0
ARC
  5
764
100
AcDbEntity
  8
L
  6
CONTINUOUS
 62
     2
100
AcDbCircle
 10
-22.000001
 20
51.999987
 40
29.999993
100
AcDbArc
 50
254.722611
 51
270.000010
  0
LINE
  5
765
100
AcDbEntity
  8
L
  6
BORDER
 62
     4
100
AcDbLine
 10
-21.999995
 20
47.104869
 11
-21.999990
 21
20.924749
  0
ARC
  5
766
100
AcDbEntity
  8
L
  6
CONTINUOUS
 62
     2
100
AcDbCircle
 10
-22.000001
 20
51.999987
 40
29.999993
100
AcDbArc
 50
270.000010
 51
302.024006
  0
LINE
  5
767
100
AcDbEntity
  8
L
  6
CONTINUOUS
 62
     2
100
AcDbLine
 10
19.750005
 20
36.999974
 11
19.750005
 21
28.999974
  0
ENDBLK
  5
768
100
AcDbEntity
  8
0
100
AcDbBlockEnd
  0
BLOCK
  5
769
100
AcDbEntity
  8
MASSE
100
AcDbBlockBegin
  2
*D0
 70
    65
 10
0.000000
 20
0.000000
 30
0.000000
  3
*D
  0
LINE
  5
76A
100
AcDbEntity
  8
MASSE
  6
BYBLOCK
 62
     3
100
AcDbLine
 10
-225.499982
 20
-72.550062
 11
-225.499982
 21
-233.999998
  0
LINE
  5
76B
100
AcDbEntity
  8
MASSE
  6
BYBLOCK
 62
     3
100
AcDbLine
 10
-225.499982
 20
-224.999998
 11
0.000003
 21
-224.999998
  0
LINE
  5
76C
100
AcDbEntity
  8
MASSE
  6
BYBLOCK
 62
     3
100
AcDbLine
 10
-215.499982
 20
-227.224998
 11
-225.499982
 21
-224.999998
  0
LINE
  5
76D
100
AcDbEntity
  8
MASSE
  6
BYBLOCK
 62
     3
100
AcDbLine
 10
-225.499982
 20
-224.999998
 11
-215.499982
 21
-222.774998
  0
LINE
  5
76E
100
AcDbEntity
  8
MASSE
  6
BYBLOCK
 62
     3
100
AcDbLine
 10
-215.499982
 20
-222.774998
 11
-215.499982
 21
-227.224998
  0
LINE
  5
76F
100
AcDbEntity
  8
MASSE
  6
BYBLOCK
 62
     3
100
AcDbLine
 10
-9.999997
 20
-222.774998
 11
0.000003
 21
-224.999998
  0
LINE
  5
770
100
AcDbEntity
  8
MASSE
  6
BYBLOCK
 62
     3
100
AcDbLine
 10
0.000003
 20
-224.999998
 11
-9.999997
 21
-227.224998
  0
LINE
  5
771
100
AcDbEntity
  8
MASSE
  6
BYBLOCK
 62
     3
100
AcDbLine
 10
-9.999997
 20
-227.224998
 11
-9.999997
 21
-222.774998
  0
LINE
  5
772
100
AcDbEntity
  8
MASSE
  6
BYBLOCK
 62
     3
100
AcDbLine
 10
0.000003
 20
-168.639467
 11
0.000003
 21
-225.049997
  0
TEXT
  5
773
100
AcDbEntity
  8
MASSE
 62
     7
100
AcDbText
 10
-149.499990
 20
-217.300000
 30
0.000000
 40
17.500000
  1
225.5
 50
0.000000
 41
1.050000
 51
0.000000
  7
TXT8
 72
     1
 11
-112.749990
 21
-217.300000
 31
0.000000
100
AcDbText
 73
     0
  0
POINT
  5
774
100
AcDbEntity
  8
MASSE
  6
BYBLOCK
 62
     9
100
AcDbPoint
 10
-225.499985
 20
-72.500065
  0
POINT
  5
775
100
AcDbEntity
  8
MASSE
  6
BYBLOCK
 62
     9
100
AcDbPoint
 10
0.000000
 20
-225.000000
  0
ENDBLK
  5
776
100
AcDbEntity
  8
0
100
AcDbBlockEnd
  0
BLOCK
  5
777
100
AcDbEntity
  8
MASSE
100
AcDbBlockBegin
  2
*D1
 70
    65
 10
0.000000
 20
0.000000
 30
0.000000
  3
*D
  0
LINE
  5
778
100
AcDbEntity
  8
MASSE
  6
BYBLOCK
 62
     3
100
AcDbLine
 10
0.000003
 20
-225.049997
 11
0.000003
 21
-233.999998
  0
LINE
  5
779
100
AcDbEntity
  8
MASSE
  6
BYBLOCK
 62
     3
100
AcDbLine
 10
0.000003
 20
-224.999998
 11
237.300007
 21
-224.999998
  0
LINE
  5
77A
100
AcDbEntity
  8
MASSE
  6
BYBLOCK
 62
     3
100
AcDbLine
 10
10.000003
 20
-227.224998
 11
0.000003
 21
-224.999998
  0
LINE
  5
77B
100
AcDbEntity
  8
MASSE
  6
BYBLOCK
 62
     3
100
AcDbLine
 10
0.000003
 20
-224.999998
 11
10.000003
 21
-222.774998
  0
LINE
  5
77C
100
AcDbEntity
  8
MASSE
  6
BYBLOCK
 62
     3
100
AcDbLine
 10
10.000003
 20
-222.774998
 11
10.000003
 21
-227.224998
  0
LINE
  5
77D
100
AcDbEntity
  8
MASSE
  6
BYBLOCK
 62
     3
100
AcDbLine
 10
227.300007
 20
-222.774998
 11
237.300007
 21
-224.999998
  0
LINE
  5
77E
100
AcDbEntity
  8
MASSE
  6
BYBLOCK
 62
     3
100
AcDbLine
 10
237.300007
 20
-224.999998
 11
227.300007
 21
-227.224998
  0
LINE
  5
77F
100
AcDbEntity
  8
MASSE
  6
BYBLOCK
 62
     3
100
AcDbLine
 10
227.300007
 20
-227.224998
 11
227.300007
 21
-222.774998
  0
LINE
  5
780
100
AcDbEntity
  8
MASSE
  6
BYBLOCK
 62
     3
100
AcDbLine
 10
237.300007
 20
-233.999998
 11
237.300007
 21
-98.049967
  0
TEXT
  5
781
100
AcDbEntity
  8
MASSE
 62
     7
100
AcDbText
 10
81.900000
 20
-217.300000
 30
0.000000
 40
17.500000
  1
237.5
 50
0.000000
 41
1.050000
 51
0.000000
  7
TXT8
 72
     1
 11
118.650000
 21
-217.300000
 31
0.000000
100
AcDbText
 73
     0
  0
POINT
  5
782
100
AcDbEntity
  8
MASSE
  6
BYBLOCK
 62
     9
100
AcDbPoint
 10
0.000000
 20
-225.000000
  0
POINT
  5
783
100
AcDbEntity
  8
MASSE
  6
BYBLOCK
 62
     9
100
AcDbPoint
 10
237.300005
 20
-97.999970
  0
ENDBLK
  5
784
100
AcDbEntity
  8
0
100
AcDbBlockEnd
  0
BLOCK
  5
785
100
AcDbEntity
  8
MASSE
100
AcDbBlockBegin
  2
*D2
 70
    65
 10
0.000000
 20
0.000000
 30
0.000000
  3
*D
  0
LINE
  5
786
100
AcDbEntity
  8
MASSE
  6
BYBLOCK
 62
     3
100
AcDbLine
 10
128.350008
 20
-143.499968
 11
334.000002
 21
-143.499968
  0
LINE
  5
787
100
AcDbEntity
  8
MASSE
  6
BYBLOCK
 62
     3
100
AcDbLine
 10
325.000002
 20
-143.499968
 11
325.000002
 21
0.000003
  0
LINE
  5
788
100
AcDbEntity
  8
MASSE
  6
BYBLOCK
 62
     3
100
AcDbLine
 10
327.225003
 20
-133.499968
 11
325.000002
 21
-143.499968
  0
LINE
  5
789
100
AcDbEntity
  8
MASSE
  6
BYBLOCK
 62
     3
100
AcDbLine
 10
325.000002
 20
-143.499968
 11
322.775003
 21
-133.499968
  0
LINE
  5
78A
100
AcDbEntity
  8
MASSE
  6
BYBLOCK
 62
     3
100
AcDbLine
 10
322.775003
 20
-133.499968
 11
327.225003
 21
-133.499968
  0
LINE
  5
78B
100
AcDbEntity
  8
MASSE
  6
BYBLOCK
 62
     3
100
AcDbLine
 10
322.775003
 20
-9.999997
 11
325.000002
 21
0.000003
  0
LINE
  5
78C
100
AcDbEntity
  8
MASSE
  6
BYBLOCK
 62
     3
100
AcDbLine
 10
325.000002
 20
0.000003
 11
327.225003
 21
-9.999997
  0
LINE
  5
78D
100
AcDbEntity
  8
MASSE
  6
BYBLOCK
 62
     3
100
AcDbLine
 10
327.225003
 20
-9.999997
 11
322.775003
 21
-9.999997
  0
LINE
  5
78E
100
AcDbEntity
  8
MASSE
  6
BYBLOCK
 62
     3
100
AcDbLine
 10
334.000002
 20
0.000003
 11
287.034067
 21
0.000003
  0
TEXT
  5
78F
100
AcDbEntity
  8
MASSE
 62
     7
100
AcDbText
 10
317.300000
 20
-108.499985
 30
0.000000
 40
17.500000
  1
143.5
 50
90.000000
 41
1.144414
 51
0.000000
  7
TXT8
 72
     1
 11
317.300000
 21
-71.749985
 31
0.000000
100
AcDbText
 73
     0
  0
POINT
  5
790
100
AcDbEntity
  8
MASSE
  6
BYBLOCK
 62
     9
100
AcDbPoint
 10
128.300005
 20
-143.499970
  0
POINT
  5
791
100
AcDbEntity
  8
MASSE
  6
BYBLOCK
 62
     9
100
AcDbPoint
 10
286.984065
 20
0.000000
  0
ENDBLK
  5
792
100
AcDbEntity
  8
0
100
AcDbBlockEnd
  0
BLOCK
  5
793
100
AcDbEntity
  8
MASSE
100
AcDbBlockBegin
  2
*D3
 70
    65
 10
0.000000
 20
0.000000
 30
0.000000
  3
*D
  0
LINE
  5
794
100
AcDbEntity
  8
MASSE
  6
BYBLOCK
 62
     3
100
AcDbLine
 10
287.034067
 20
0.000003
 11
334.000002
 21
0.000003
  0
LINE
  5
795
100
AcDbEntity
  8
MASSE
  6
BYBLOCK
 62
     3
100
AcDbLine
 10
325.000002
 20
0.000003
 11
325.000002
 21
198.000002
  0
LINE
  5
796
100
AcDbEntity
  8
MASSE
  6
BYBLOCK
 62
     3
100
AcDbLine
 10
327.225003
 20
10.000003
 11
325.000002
 21
0.000003
  0
LINE
  5
797
100
AcDbEntity
  8
MASSE
  6
BYBLOCK
 62
     3
100
AcDbLine
 10
325.000002
 20
0.000003
 11
322.775003
 21
10.000003
  0
LINE
  5
798
100
AcDbEntity
  8
MASSE
  6
BYBLOCK
 62
     3
100
AcDbLine
 10
322.775003
 20
10.000003
 11
327.225003
 21
10.000003
  0
LINE
  5
799
100
AcDbEntity
  8
MASSE
  6
BYBLOCK
 62
     3
100
AcDbLine
 10
322.775003
 20
188.000002
 11
325.000002
 21
198.000002
  0
LINE
  5
79A
100
AcDbEntity
  8
MASSE
  6
BYBLOCK
 62
     3
100
AcDbLine
 10
325.000002
 20
198.000002
 11
327.225003
 21
188.000002
  0
LINE
  5
79B
100
AcDbEntity
  8
MASSE
  6
BYBLOCK
 62
     3
100
AcDbLine
 10
327.225003
 20
188.000002
 11
322.775003
 21
188.000002
  0
LINE
  5
79C
100
AcDbEntity
  8
MASSE
  6
BYBLOCK
 62
     3
100
AcDbLine
 10
334.000002
 20
198.000002
 11
187.049993
 21
198.000002
  0
TEXT
  5
79D
100
AcDbEntity
  8
MASSE
 62
     7
100
AcDbText
 10
317.300000
 20
78.000000
 30
0.000000
 40
17.500000
  1
198
 50
90.000000
 41
1.025641
 51
0.000000
  7
TXT8
 72
     1
 11
317.300000
 21
99.000000
 31
0.000000
100
AcDbText
 73
     0
  0
POINT
  5
79E
100
AcDbEntity
  8
MASSE
  6
BYBLOCK
 62
     9
100
AcDbPoint
 10
286.984065
 20
0.000000
  0
POINT
  5
79F
100
AcDbEntity
  8
MASSE
  6
BYBLOCK
 62
     9
100
AcDbPoint
 10
186.999990
 20
198.000000
  0
ENDBLK
  5
7A0
100
AcDbEntity
  8
0
100
AcDbBlockEnd
  0
BLOCK
  5
7A2
100
AcDbEntity
  8
L
100
AcDbBlockBegin
  2
B-52
 70
    66
 10
0.000000
 20
0.000000
 30
0.000000
  0
LINE
  5
7A3
100
AcDbEntity
  8
L
  6
CONTINUOUS
 62
     2
100
AcDbLine
 10
-486.038930
 20
-336.971690
 11
-486.038930
 21
-354.471660
  0
LINE
  5
7A4
100
AcDbEntity
  8
L
  6
CONTINUOUS
 62
     2
100
AcDbLine
 10
-496.038900
 20
-343.221660
 11
-496.038900
 21
-349.471660
  0
LINE
  5
7A5
100
AcDbEntity
  8
L
  6
CONTINUOUS
 62
     2
100
AcDbLine
 10
-536.038900
 20
-343.221660
 11
-536.038900
 21
-349.471660
  0
LINE
  5
7A6
100
AcDbEntity
  8
L
  6
CONTINUOUS
 62
     2
100
AcDbLine
 10
-586.038900
 20
-354.471660
 11
-586.038900
 21
-336.971690
  0
LINE
  5
7A7
100
AcDbEntity
  8
L
  6
CONTINUOUS
 62
     2
100
AcDbLine
 10
-576.038900
 20
-349.471660
 11
-576.038900
 21
-343.221660
  0
LINE
  5
7A8
100
AcDbEntity
  8
L
  6
CONTINUOUS
 62
     2
100
AcDbLine
 10
-566.038900
 20
-343.221660
 11
-566.038900
 21
-349.471660
  0
LINE
  5
7A9
100
AcDbEntity
  8
L
  6
CONTINUOUS
 62
     2
100
AcDbLine
 10
-556.038900
 20
-343.221660
 11
-556.038900
 21
-349.471660
  0
LINE
  5
7AA
100
AcDbEntity
  8
L
  6
CONTINUOUS
 62
     2
100
AcDbLine
 10
-546.038900
 20
-343.221660
 11
-546.038900
 21
-349.471660
  0
LINE
  5
7AB
100
AcDbEntity
  8
L
  6
CONTINUOUS
 62
     2
100
AcDbLine
 10
-526.038900
 20
-343.221660
 11
-526.038900
 21
-349.471660
  0
LINE
  5
7AC
100
AcDbEntity
  8
L
  6
CONTINUOUS
 62
     2
100
AcDbLine
 10
-516.038900
 20
-343.221660
 11
-516.038900
 21
-349.471660
  0
LINE
  5
7AD
100
AcDbEntity
  8
L
  6
CONTINUOUS
 62
     2
100
AcDbLine
 10
-506.038900
 20
-343.221660
 11
-506.038900
 21
-349.471660
  0
LINE
  5
7AE
100
AcDbEntity
  8
L
  6
CONTINUOUS
 62
     2
100
AcDbLine
 10
-476.038940
 20
-343.221660
 11
-476.038940
 21
-349.471660
  0
LINE
  5
7AF
100
AcDbEntity
  8
L
  6
CONTINUOUS
 62
     2
100
AcDbLine
 10
-466.038940
 20
-343.221660
 11
-466.038940
 21
-349.471660
  0
LINE
  5
7B0
100
AcDbEntity
  8
L
  6
CONTINUOUS
 62
     2
100
AcDbLine
 10
-456.038940
 20
-343.221660
 11
-456.038940
 21
-349.471660
  0
LINE
  5
7B1
100
AcDbEntity
  8
L
  6
CONTINUOUS
 62
     2
100
AcDbLine
 10
-446.038940
 20
-343.221660
 11
-446.038940
 21
-349.471660
  0
LINE
  5
7B2
100
AcDbEntity
  8
L
  6
CONTINUOUS
 62
     2
100
AcDbLine
 10
-436.038940
 20
-343.221660
 11
-436.038940
 21
-349.471660
  0
LINE
  5
7B3
100
AcDbEntity
  8
L
  6
CONTINUOUS
 62
     2
100
AcDbLine
 10
-426.038940
 20
-343.221660
 11
-426.038940
 21
-349.471660
  0
LINE
  5
7B4
100
AcDbEntity
  8
L
  6
CONTINUOUS
 62
     2
100
AcDbLine
 10
-416.038940
 20
-343.221660
 11
-416.038940
 21
-349.471660
  0
LINE
  5
7B5
100
AcDbEntity
  8
L
  6
CONTINUOUS
 62
     2
100
AcDbLine
 10
-406.038940
 20
-343.221660
 11
-406.038940
 21
-349.471660
  0
LINE
  5
7B6
100
AcDbEntity
  8
L
  6
CONTINUOUS
 62
     2
100
AcDbLine
 10
-396.038940
 20
-343.221660
 11
-396.038940
 21
-349.471660
  0
LINE
  5
7B7
100
AcDbEntity
  8
L
  6
CONTINUOUS
 62
     2
100
AcDbLine
 10
-386.038940
 20
-336.971690
 11
-386.038940
 21
-354.471660
  0
LINE
  5
7B8
100
AcDbEntity
  8
L
  6
CONTINUOUS
 62
     2
100
AcDbLine
 10
-586.038900
 20
-349.471660
 11
-386.038940
 21
-349.471660
  0
TEXT
  5
7B9
100
AcDbEntity
  8
L
 62
     3
100
AcDbText
 10
-589.163920
 20
-377.471685
 30
0.000000
 40
12.500000
  1
0
 50
0.000000
 41
1.200000
 51
0.000000
  7
TXT8
 72
     0
 11
-589.163920
 21
-364.971685
 31
0.000000
100
AcDbText
 73
     3
  0
TEXT
  5
7BA
100
AcDbEntity
  8
L
 62
     3
100
AcDbText
 10
-500.413920
 20
-377.471685
 30
0.000000
 40
12.500000
  1
100
 50
0.000000
 41
1.200000
 51
0.000000
  7
TXT8
 72
     0
 11
-500.413920
 21
-364.971685
 31
0.000000
100
AcDbText
 73
     3
  0
TEXT
  5
7BB
100
AcDbEntity
  8
L
 62
     3
100
AcDbText
 10
-400.460300
 20
-377.471685
 30
0.000000
 40
12.500000
  1
200
 50
0.000000
 41
1.030043
 51
0.000000
  7
TXT8
 72
     0
 11
-400.460300
 21
-364.971685
 31
0.000000
100
AcDbText
 73
     3
  0
ENDBLK
  5
7BC
100
AcDbEntity
  8
0
100
AcDbBlockEnd
  0
BLOCK
  5
7BD
100
AcDbEntity
  8
L
100
AcDbBlockBegin
  2
B-53
 70
    66
 10
0.000000
 20
0.000000
 30
0.000000
  0
LINE
  5
7BE
100
AcDbEntity
  8
L
  6
CONTINUOUS
 62
     2
100
AcDbLine
 10
-706.250005
 20
-456.249980
 11
-421.250005
 21
-456.249980
  0
LINE
  5
7BF
100
AcDbEntity
  8
L
  6
CONTINUOUS
 62
     2
100
AcDbLine
 10
-421.250005
 20
-488.749980
 11
-421.250005
 21
-456.249980
  0
LINE
  5
7C0
100
AcDbEntity
  8
L
  6
CONTINUOUS
 62
     2
100
AcDbLine
 10
-706.250005
 20
-423.749980
 11
-421.250005
 21
-423.749980
  0
LINE
  5
7C1
100
AcDbEntity
  8
L
  6
CONTINUOUS
 62
     2
100
AcDbLine
 10
-421.250005
 20
-456.249980
 11
-421.250005
 21
-423.749980
  0
TEXT
  5
7C2
100
AcDbEntity
  8
L
 62
     6
100
AcDbText
 10
-700.593755
 20
-482.750020
 30
0.000000
 40
6.250000
  1
behalten wir uns vor.
 50
0.000000
 41
0.908599
 51
0.000000
  7
TXT8
 72
     0
 11
-700.593755
 21
-476.500020
 31
0.000000
100
AcDbText
 73
     3
  0
TEXT
  5
7C3
100
AcDbEntity
  8
L
 62
     6
100
AcDbText
 10
-700.593755
 20
-467.750020
 30
0.000000
 40
6.250000
  1
Änderungen, die dem technischen Fortschritt dienen, 
 50
0.000000
 41
0.913357
 51
0.000000
  7
TXT8
 72
     0
 11
-700.593755
 21
-461.500020
 31
0.000000
100
AcDbText
 73
     3
  0
TEXT
  5
7C4
100
AcDbEntity
  8
L
 62
     6
100
AcDbText
 10
-700.593755
 20
-435.250020
 30
0.000000
 40
6.250000
  1
In the interests of technical progress we reserve 
 50
0.000000
 41
0.860530
 51
0.000000
  7
TXT8
 72
     0
 11
-700.593755
 21
-429.000020
 31
0.000000
100
AcDbText
 73
     3
  0
TEXT
  5
7C5
100
AcDbEntity
  8
L
 62
     6
100
AcDbText
 10
-700.593755
 20
-450.250020
 30
0.000000
 40
6.250000
  1
the right to introduce modifications.
 50
0.000000
 41
0.921077
 51
0.000000
  7
TXT8
 72
     0
 11
-700.593755
 21
-444.000020
 31
0.000000
100
AcDbText
 73
     3
  0
ENDBLK
  5
7C6
100
AcDbEntity
  8
0
100
AcDbBlockEnd
  0
BLOCK
  5
7C7
100
AcDbEntity
  8
L
100
AcDbBlockBegin
  2
rahmen
 70
    66
 10
0.000000
 20
0.000000
 30
0.000000
  0
LINE
  5
7C8
100
AcDbEntity
  8
L
  6
CONTINUOUS
 62
     6
100
AcDbLine
 10
-736.249980
 20
210.000000
 11
-706.249980
 21
210.000000
  0
LINE
  5
7C9
100
AcDbEntity
  8
L
  6
CONTINUOUS
 62
     6
100
AcDbLine
 10
-736.249980
 20
-518.749990
 11
736.250020
 21
-518.749990
  0
LINE
  5
7CA
100
AcDbEntity
  8
L
  6
CONTINUOUS
 62
     6
100
AcDbLine
 10
736.250020
 20
-518.749990
 11
736.250020
 21
518.750000
  0
LINE
  5
7CB
100
AcDbEntity
  8
L
  6
CONTINUOUS
 62
     6
100
AcDbLine
 10
736.250020
 20
518.750000
 11
-736.249980
 21
518.750000
  0
LINE
  5
7CC
100
AcDbEntity
  8
L
  6
CONTINUOUS
 62
     6
100
AcDbLine
 10
-736.249980
 20
518.750000
 11
-736.249980
 21
-518.749990
  0
LINE
  5
7CD
100
AcDbEntity
  8
L
  6
CONTINUOUS
 62
     6
100
AcDbLine
 10
742.500020
 20
-524.999990
 11
742.500020
 21
-506.249990
  0
LINE
  5
7CE
100
AcDbEntity
  8
L
  6
CONTINUOUS
 62
     6
100
AcDbLine
 10
742.500020
 20
506.250000
 11
742.500020
 21
525.000000
  0
LINE
  5
7CF
100
AcDbEntity
  8
L
  6
CONTINUOUS
 62
     6
100
AcDbLine
 10
742.500020
 20
525.000000
 11
723.750020
 21
525.000000
  0
LINE
  5
7D0
100
AcDbEntity
  8
L
  6
CONTINUOUS
 62
     6
100
AcDbLine
 10
-723.749980
 20
525.000000
 11
-742.499970
 21
525.000000
  0
LINE
  5
7D1
100
AcDbEntity
  8
L
  6
CONTINUOUS
 62
     6
100
AcDbLine
 10
-742.499970
 20
525.000000
 11
-742.499970
 21
506.250000
  0
LINE
  5
7D2
100
AcDbEntity
  8
L
  6
CONTINUOUS
 62
     6
100
AcDbLine
 10
-742.499970
 20
-506.249990
 11
-742.499970
 21
-524.999990
  0
LINE
  5
7D3
100
AcDbEntity
  8
L
  6
CONTINUOUS
 62
     6
100
AcDbLine
 10
-742.499970
 20
-524.999990
 11
-723.749980
 21
-524.999990
  0
LINE
  5
7D4
100
AcDbEntity
  8
L
  6
CONTINUOUS
 62
     6
100
AcDbLine
 10
723.750020
 20
-524.999990
 11
742.500020
 21
-524.999990
  0
LINE
  5
7D5
100
AcDbEntity
  8
L
  6
CONTINUOUS
 62
     6
100
AcDbLine
 10
267.500020
 20
-518.749990
 11
267.500020
 21
-488.749990
  0
LINE
  5
7D6
100
AcDbEntity
  8
L
  6
CONTINUOUS
 62
     6
100
AcDbLine
 10
267.500020
 20
488.750000
 11
267.500020
 21
518.750000
  0
LINE
  5
7D7
100
AcDbEntity
  8
L
  6
CONTINUOUS
 62
     6
100
AcDbLine
 10
-692.499980
 20
-488.749990
 11
-692.499980
 21
-518.749990
  0
LINE
  5
7D8
100
AcDbEntity
  8
L
  6
CONTINUOUS
 62
     6
100
AcDbLine
 10
-692.499980
 20
488.750000
 11
-692.499980
 21
518.750000
  0
LINE
  5
7D9
100
AcDbEntity
  8
L
  6
CONTINUOUS
 62
     6
100
AcDbLine
 10
-736.249980
 20
-153.749990
 11
-706.249980
 21
-153.749990
  0
LINE
  5
7DA
100
AcDbEntity
  8
L
  6
CONTINUOUS
 62
     6
100
AcDbLine
 10
-207.499980
 20
-518.749990
 11
-207.499980
 21
-488.749990
  0
LINE
  5
7DB
100
AcDbEntity
  8
L
  6
CONTINUOUS
 62
     6
100
AcDbLine
 10
-207.499980
 20
488.750000
 11
-207.499980
 21
518.750000
  0
LINE
  5
7DC
100
AcDbEntity
  8
L
  6
CONTINUOUS
 62
     2
100
AcDbLine
 10
706.250020
 20
-488.749990
 11
706.250020
 21
488.750000
  0
LINE
  5
7DD
100
AcDbEntity
  8
L
  6
CONTINUOUS
 62
     2
100
AcDbLine
 10
706.250020
 20
488.750000
 11
-706.249980
 21
488.750000
  0
LINE
  5
7DE
100
AcDbEntity
  8
L
  6
CONTINUOUS
 62
     2
100
AcDbLine
 10
-706.249980
 20
488.750000
 11
-706.249980
 21
-488.749990
  0
LINE
  5
7DF
100
AcDbEntity
  8
L
  6
CONTINUOUS
 62
     2
100
AcDbLine
 10
-706.249980
 20
-488.749990
 11
706.250020
 21
-488.749990
  0
LINE
  5
7E0
100
AcDbEntity
  8
L
  6
BORDER
 62
     4
100
AcDbLine
 10
-263.687705
 20
0.000000
 11
56.765110
 21
0.000000
  0
LINE
  5
7E1
100
AcDbEntity
  8
L
  6
BORDER
 62
     4
100
AcDbLine
 10
0.000000
 20
282.300995
 11
0.000005
 21
17.739455
  0
LINE
  5
7E2
100
AcDbEntity
  8
L
  6
BORDER
 62
     4
100
AcDbLine
 10
0.000005
 20
17.739460
 11
0.000005
 21
-168.639470
  0
LINE
  5
7E3
100
AcDbEntity
  8
L
  6
BORDER
 62
     4
100
AcDbLine
 10
67.499995
 20
0.000000
 11
286.984065
 21
0.000000
  0
ENDBLK
  5
7E4
100
AcDbEntity
  8
0
100
AcDbBlockEnd
  0
BLOCK
  5
7E5
100
AcDbEntity
  8
0
100
AcDbBlockBegin
  2
ZNr
 70
    66
 10
0.000000
 20
0.000000
 30
0.000000
  0
ENDBLK
  5
7E6
100
AcDbEntity
  8
0
100
AcDbBlockEnd
  0
BLOCK
  5
7E7
100
AcDbEntity
  8
L
100
AcDbBlockBegin
  2
datum1
 70
    66
 10
0.000000
 20
0.000000
 30
0.000000
  0
ENDBLK
  5
7E8
100
AcDbEntity
  8
0
100
AcDbBlockEnd
  0
BLOCK
  5
7E9
100
AcDbEntity
  8
L
100
AcDbBlockBegin
  2
datum2
 70
    66
 10
0.000000
 20
0.000000
 30
0.000000
  0
ENDBLK
  5
7EA
100
AcDbEntity
  8
0
100
AcDbBlockEnd
  0
BLOCK
  5
7EB
100
AcDbEntity
  8
L
100
AcDbBlockBegin
  2
datum3
 70
    66
 10
0.000000
 20
0.000000
 30
0.000000
  0
ENDBLK
  5
7EC
100
AcDbEntity
  8
0
100
AcDbBlockEnd
  0
BLOCK
  5
7ED
100
AcDbEntity
  8
L
100
AcDbBlockBegin
  2
datum4
 70
    66
 10
0.000000
 20
0.000000
 30
0.000000
  0
ENDBLK
  5
7EE
100
AcDbEntity
  8
0
100
AcDbBlockEnd
  0
BLOCK
  5
7EF
100
AcDbEntity
  8
L
100
AcDbBlockBegin
  2
datum5
 70
    66
 10
0.000000
 20
0.000000
 30
0.000000
  0
ENDBLK
  5
7F0
100
AcDbEntity
  8
0
100
AcDbBlockEnd
  0
BLOCK
  5
7F1
100
AcDbEntity
  8
L
100
AcDbBlockBegin
  2
datum6
 70
    66
 10
0.000000
 20
0.000000
 30
0.000000
  0
ENDBLK
  5
7F2
100
AcDbEntity
  8
0
100
AcDbBlockEnd
  0
BLOCK
  5
7F3
100
AcDbEntity
  8
L
100
AcDbBlockBegin
  2
datum7
 70
    66
 10
0.000000
 20
0.000000
 30
0.000000
  0
ENDBLK
  5
7F4
100
AcDbEntity
  8
0
100
AcDbBlockEnd
  0
BLOCK
  5
7F5
100
AcDbEntity
  8
L
100
AcDbBlockBegin
  2
index7
 70
    66
 10
0.000000
 20
0.000000
 30
0.000000
  0
ENDBLK
  5
7F6
100
AcDbEntity
  8
0
100
AcDbBlockEnd
  0
BLOCK
  5
7F7
100
AcDbEntity
  8
L
100
AcDbBlockBegin
  2
index1
 70
    66
 10
0.000000
 20
0.000000
 30
0.000000
  0
ENDBLK
  5
7F8
100
AcDbEntity
  8
0
100
AcDbBlockEnd
  0
BLOCK
  5
7F9
100
AcDbEntity
  8
L
100
AcDbBlockBegin
  2
name3
 70
    66
 10
0.000000
 20
0.000000
 30
0.000000
  0
ENDBLK
  5
7FA
100
AcDbEntity
  8
0
100
AcDbBlockEnd
  0
BLOCK
  5
7FB
100
AcDbEntity
  8
L
100
AcDbBlockBegin
  2
name5
 70
    66
 10
0.000000
 20
0.000000
 30
0.000000
  0
ENDBLK
  5
7FC
100
AcDbEntity
  8
0
100
AcDbBlockEnd
  0
BLOCK
  5
7FD
100
AcDbEntity
  8
L
100
AcDbBlockBegin
  2
name1
 70
    66
 10
0.000000
 20
0.000000
 30
0.000000
  0
ENDBLK
  5
7FE
100
AcDbEntity
  8
0
100
AcDbBlockEnd
  0
BLOCK
  5
7FF
100
AcDbEntity
  8
L
100
AcDbBlockBegin
  2
name7
 70
    66
 10
0.000000
 20
0.000000
 30
0.000000
  0
ENDBLK
  5
800
100
AcDbEntity
  8
0
100
AcDbBlockEnd
  0
BLOCK
  5
801
100
AcDbEntity
  8
L
100
AcDbBlockBegin
  2
nummer1
 70
    66
 10
0.000000
 20
0.000000
 30
0.000000
  0
ENDBLK
  5
802
100
AcDbEntity
  8
0
100
AcDbBlockEnd
  0
BLOCK
  5
803
100
AcDbEntity
  8
L
100
AcDbBlockBegin
  2
nummer7
 70
    66
 10
0.000000
 20
0.000000
 30
0.000000
  0
ENDBLK
  5
804
100
AcDbEntity
  8
0
100
AcDbBlockEnd
  0
BLOCK
  5
805
100
AcDbEntity
  8
L
100
AcDbBlockBegin
  2
name2
 70
    66
 10
0.000000
 20
0.000000
 30
0.000000
  0
ENDBLK
  5
806
100
AcDbEntity
  8
0
100
AcDbBlockEnd
  0
BLOCK
  5
807
100
AcDbEntity
  8
L
100
AcDbBlockBegin
  2
name4
 70
    66
 10
0.000000
 20
0.000000
 30
0.000000
  0
ENDBLK
  5
808
100
AcDbEntity
  8
0
100
AcDbBlockEnd
  0
BLOCK
  5
809
100
AcDbEntity
  8
L
100
AcDbBlockBegin
  2
name6
 70
    66
 10
0.000000
 20
0.000000
 30
0.000000
  0
ENDBLK
  5
80A
100
AcDbEntity
  8
0
100
AcDbBlockEnd
  0
BLOCK
  5
80B
100
AcDbEntity
  8
L
100
AcDbBlockBegin
  2
nummer2
 70
    66
 10
0.000000
 20
0.000000
 30
0.000000
  0
ENDBLK
  5
80C
100
AcDbEntity
  8
0
100
AcDbBlockEnd
  0
BLOCK
  5
80D
100
AcDbEntity
  8
L
100
AcDbBlockBegin
  2
nummer3
 70
    66
 10
0.000000
 20
0.000000
 30
0.000000
  0
ENDBLK
  5
80E
100
AcDbEntity
  8
0
100
AcDbBlockEnd
  0
BLOCK
  5
80F
100
AcDbEntity
  8
L
100
AcDbBlockBegin
  2
nummer4
 70
    66
 10
0.000000
 20
0.000000
 30
0.000000
  0
ENDBLK
  5
810
100
AcDbEntity
  8
0
100
AcDbBlockEnd
  0
BLOCK
  5
811
100
AcDbEntity
  8
L
100
AcDbBlockBegin
  2
nummer5
 70
    66
 10
0.000000
 20
0.000000
 30
0.000000
  0
ENDBLK
  5
812
100
AcDbEntity
  8
0
100
AcDbBlockEnd
  0
BLOCK
  5
813
100
AcDbEntity
  8
L
100
AcDbBlockBegin
  2
nummer6
 70
    66
 10
0.000000
 20
0.000000
 30
0.000000
  0
ENDBLK
  5
814
100
AcDbEntity
  8
0
100
AcDbBlockEnd
  0
BLOCK
  5
815
100
AcDbEntity
  8
L
100
AcDbBlockBegin
  2
index2
 70
    66
 10
0.000000
 20
0.000000
 30
0.000000
  0
ENDBLK
  5
816
100
AcDbEntity
  8
0
100
AcDbBlockEnd
  0
BLOCK
  5
817
100
AcDbEntity
  8
L
100
AcDbBlockBegin
  2
index3
 70
    66
 10
0.000000
 20
0.000000
 30
0.000000
  0
ENDBLK
  5
818
100
AcDbEntity
  8
0
100
AcDbBlockEnd
  0
BLOCK
  5
819
100
AcDbEntity
  8
L
100
AcDbBlockBegin
  2
index4
 70
    66
 10
0.000000
 20
0.000000
 30
0.000000
  0
ENDBLK
  5
81A
100
AcDbEntity
  8
0
100
AcDbBlockEnd
  0
BLOCK
  5
81B
100
AcDbEntity
  8
L
100
AcDbBlockBegin
  2
index5
 70
    66
 10
0.000000
 20
0.000000
 30
0.000000
  0
ENDBLK
  5
81C
100
AcDbEntity
  8
0
100
AcDbBlockEnd
  0
BLOCK
  5
81D
100
AcDbEntity
  8
L
100
AcDbBlockBegin
  2
index6
 70
    66
 10
0.000000
 20
0.000000
 30
0.000000
  0
ENDBLK
  5
81E
100
AcDbEntity
  8
0
100
AcDbBlockEnd
  0
BLOCK
  5
81F
100
AcDbEntity
  8
L
100
AcDbBlockBegin
  2
index8
 70
    66
 10
0.000000
 20
0.000000
 30
0.000000
  0
ENDBLK
  5
820
100
AcDbEntity
  8
0
100
AcDbBlockEnd
  0
BLOCK
  5
821
100
AcDbEntity
  8
L
100
AcDbBlockBegin
  2
index9
 70
    66
 10
0.000000
 20
0.000000
 30
0.000000
  0
ENDBLK
  5
822
100
AcDbEntity
  8
0
100
AcDbBlockEnd
  0
BLOCK
  5
823
100
AcDbEntity
  8
L
100
AcDbBlockBegin
  2
datum8
 70
    66
 10
0.000000
 20
0.000000
 30
0.000000
  0
ENDBLK
  5
824
100
AcDbEntity
  8
0
100
AcDbBlockEnd
  0
BLOCK
  5
825
100
AcDbEntity
  8
L
100
AcDbBlockBegin
  2
name8
 70
    66
 10
0.000000
 20
0.000000
 30
0.000000
  0
ENDBLK
  5
826
100
AcDbEntity
  8
0
100
AcDbBlockEnd
  0
BLOCK
  5
827
100
AcDbEntity
  8
L
100
AcDbBlockBegin
  2
name9
 70
    66
 10
0.000000
 20
0.000000
 30
0.000000
  0
ENDBLK
  5
828
100
AcDbEntity
  8
0
100
AcDbBlockEnd
  0
BLOCK
  5
829
100
AcDbEntity
  8
L
100
AcDbBlockBegin
  2
nummer8
 70
    66
 10
0.000000
 20
0.000000
 30
0.000000
  0
ENDBLK
  5
82A
100
AcDbEntity
  8
0
100
AcDbBlockEnd
  0
BLOCK
  5
82B
100
AcDbEntity
  8
L
100
AcDbBlockBegin
  2
nummer9
 70
    66
 10
0.000000
 20
0.000000
 30
0.000000
  0
ENDBLK
  5
82C
100
AcDbEntity
  8
0
100
AcDbBlockEnd
  0
BLOCK
  5
82D
100
AcDbEntity
  8
L
100
AcDbBlockBegin
  2
aend1
 70
    66
 10
0.000000
 20
0.000000
 30
0.000000
  0
ENDBLK
  5
82E
100
AcDbEntity
  8
0
100
AcDbBlockEnd
  0
BLOCK
  5
82F
100
AcDbEntity
  8
L
100
AcDbBlockBegin
  2
aend2
 70
    66
 10
0.000000
 20
0.000000
 30
0.000000
  0
ENDBLK
  5
830
100
AcDbEntity
  8
0
100
AcDbBlockEnd
  0
BLOCK
  5
831
100
AcDbEntity
  8
L
100
AcDbBlockBegin
  2
aend3
 70
    66
 10
0.000000
 20
0.000000
 30
0.000000
  0
ENDBLK
  5
832
100
AcDbEntity
  8
0
100
AcDbBlockEnd
  0
BLOCK
  5
833
100
AcDbEntity
  8
L
100
AcDbBlockBegin
  2
aend4
 70
    66
 10
0.000000
 20
0.000000
 30
0.000000
  0
ENDBLK
  5
834
100
AcDbEntity
  8
0
100
AcDbBlockEnd
  0
BLOCK
  5
835
100
AcDbEntity
  8
L
100
AcDbBlockBegin
  2
aend5
 70
    66
 10
0.000000
 20
0.000000
 30
0.000000
  0
ENDBLK
  5
836
100
AcDbEntity
  8
0
100
AcDbBlockEnd
  0
BLOCK
  5
837
100
AcDbEntity
  8
L
100
AcDbBlockBegin
  2
aend6
 70
    66
 10
0.000000
 20
0.000000
 30
0.000000
  0
ENDBLK
  5
838
100
AcDbEntity
  8
0
100
AcDbBlockEnd
  0
BLOCK
  5
839
100
AcDbEntity
  8
L
100
AcDbBlockBegin
  2
aend7
 70
    66
 10
0.000000
 20
0.000000
 30
0.000000
  0
ENDBLK
  5
83A
100
AcDbEntity
  8
0
100
AcDbBlockEnd
  0
BLOCK
  5
83B
100
AcDbEntity
  8
L
100
AcDbBlockBegin
  2
aend8
 70
    66
 10
0.000000
 20
0.000000
 30
0.000000
  0
ENDBLK
  5
83C
100
AcDbEntity
  8
0
100
AcDbBlockEnd
  0
BLOCK
  5
83D
100
AcDbEntity
  8
L
100
AcDbBlockBegin
  2
aend9
 70
    66
 10
0.000000
 20
0.000000
 30
0.000000
  0
ENDBLK
  5
83E
100
AcDbEntity
  8
0
100
AcDbBlockEnd
  0
BLOCK
  5
83F
100
AcDbEntity
  8
L
100
AcDbBlockBegin
  2
datum9
 70
    66
 10
0.000000
 20
0.000000
 30
0.000000
  0
ENDBLK
  5
840
100
AcDbEntity
  8
0
100
AcDbBlockEnd
  0
BLOCK
  5
841
100
AcDbEntity
  8
L
100
AcDbBlockBegin
  2
sk
 70
    66
 10
0.000000
 20
0.000000
 30
0.000000
  0
ENDBLK
  5
842
100
AcDbEntity
  8
0
100
AcDbBlockEnd
  0
BLOCK
  5
843
100
AcDbEntity
  8
L
100
AcDbBlockBegin
  2
B-86
 70
    66
 10
0.000000
 20
0.000000
 30
0.000000
  0
LINE
  5
844
100
AcDbEntity
  8
L
  6
CONTINUOUS
 62
     2
100
AcDbLine
 10
243.750055
 20
-488.749990
 11
243.750055
 21
-456.250000
  0
LINE
  5
845
100
AcDbEntity
  8
L
  6
CONTINUOUS
 62
     2
100
AcDbLine
 10
243.750055
 20
-456.250000
 11
338.750050
 21
-456.250000
  0
LINE
  5
846
100
AcDbEntity
  8
L
  6
CONTINUOUS
 62
     2
100
AcDbLine
 10
243.750055
 20
-456.250000
 11
243.750055
 21
-423.750000
  0
LINE
  5
847
100
AcDbEntity
  8
L
  6
CONTINUOUS
 62
     2
100
AcDbLine
 10
243.750055
 20
-423.750000
 11
338.750050
 21
-423.750000
  0
TEXT
  5
848
100
AcDbEntity
  8
L
 62
     6
100
AcDbText
 10
246.211535
 20
-470.250015
 30
0.000000
 40
6.250000
  1
Schutzvermerk nach
 50
0.000000
 41
0.821143
 51
0.000000
  7
TXT8
 72
     0
 11
246.211535
 21
-470.250015
 31
0.000000
100
AcDbText
 73
     0
  0
TEXT
  5
849
100
AcDbEntity
  8
L
 62
     6
100
AcDbText
 10
246.211535
 20
-482.000015
 30
0.000000
 40
6.250000
  1
 DIN 34 beachten
 50
0.000000
 41
0.840475
 51
0.000000
  7
TXT8
 72
     0
 11
246.211535
 21
-482.000015
 31
0.000000
100
AcDbText
 73
     0
  0
TEXT
  5
84A
100
AcDbEntity
  8
L
 62
     6
100
AcDbText
 10
254.433635
 20
-436.750615
 30
0.000000
 40
6.250000
  1
PROTECTION MARK
 50
0.000000
 41
0.832636
 51
0.000000
  7
TXT8
 72
     0
 11
254.433635
 21
-436.750615
 31
0.000000
100
AcDbText
 73
     0
  0
TEXT
  5
84B
100
AcDbEntity
  8
L
 62
     6
100
AcDbText
 10
254.433635
 20
-448.500615
 30
0.000000
 40
6.250000
  1
ACC.TO DIN 34
 50
0.000000
 41
0.884319
 51
0.000000
  7
TXT8
 72
     0
 11
254.433635
 21
-448.500615
 31
0.000000
100
AcDbText
 73
     0
  0
ENDBLK
  5
84C
100
AcDbEntity
  8
0
100
AcDbBlockEnd
  0
BLOCK
  5
84D
100
AcDbEntity
  8
0
100
AcDbBlockBegin
  2
Be1
 70
    66
 10
0.000000
 20
0.000000
 30
0.000000
  0
TEXT
  5
84E
100
AcDbEntity
  8
0
 62
     2
100
AcDbText
 10
431.375020
 20
-408.950000
 30
0.000000
 40
17.500000
  1
Einbauzeichnung
 50
0.000000
 41
1.029641
 51
0.000000
  7
TXT8
 72
     0
 11
431.375020
 21
-391.450000
 31
0.000000
100
AcDbText
 73
     3
  0
ENDBLK
  5
84F
100
AcDbEntity
  8
0
100
AcDbBlockEnd
  0
BLOCK
  5
850
100
AcDbEntity
  8
SCHRAFF
100
AcDbBlockBegin
  2
B-87
 70
    66
 10
0.000000
 20
0.000000
 30
0.000000
  0
HATCH
  5
851
100
AcDbEntity
  8
SCHRAFF
  6
CONTINUOUS
 62
     4
100
AcDbHatch
 10
0.000000
 20
0.000000
 30
0.000000
210
0.000000
220
0.000000
230
1.000000
  2
_U
 70
     0
 71
     1
 91
     8
 92
    18
 72
     1
 73
     0
 93
     6
 10
421.250020
 20
-441.249980
 42
0.000000
 10
421.250020
 20
-368.749990
 42
0.000000
 10
338.750030
 20
-368.750010
 42
0.000000
 10
338.750030
 20
-456.249990
 42
0.000000
 10
421.250020
 20
-456.249990
 42
0.000000
 10
421.250020
 20
-441.249980
 42
0.000000
 97
     0
 92
     2
 72
     1
 73
     0
 93
    31
 10
343.250020
 20
-423.999980
 42
0.000000
 10
350.500020
 20
-421.999980
 42
0.000000
 10
345.250020
 20
-420.249980
 42
0.000000
 10
352.500020
 20
-418.249980
 42
0.000000
 10
348.750020
 20
-416.499980
 42
0.000000
 10
352.500020
 20
-416.499980
 42
0.000000
 10
407.500020
 20
-416.499990
 42
0.000000
 10
411.250030
 20
-416.499980
 42
0.000000
 10
407.500030
 20
-418.249980
 42
0.000000
 10
414.750020
 20
-420.249980
 42
0.000000
 10
409.500030
 20
-421.999980
 42
0.000000
 10
416.750020
 20
-423.999980
 42
0.000000
 10
410.500030
 20
-425.749980
 42
0.000000
 10
417.750020
 20
-428.499990
 42
0.000000
 10
410.500020
 20
-431.250000
 42
0.000000
 10
416.750020
 20
-433.000000
 42
0.000000
 10
409.500020
 20
-435.000000
 42
0.000000
 10
414.750020
 20
-436.750000
 42
0.000000
 10
407.500020
 20
-438.750000
 42
0.000000
 10
411.250020
 20
-440.500000
 42
0.000000
 10
407.500020
 20
-440.500000
 42
0.000000
 10
352.500020
 20
-440.499990
 42
0.000000
 10
348.750030
 20
-440.499990
 42
0.000000
 10
352.500020
 20
-438.749990
 42
0.000000
 10
345.250020
 20
-436.749990
 42
0.000000
 10
350.500020
 20
-434.999990
 42
0.000000
 10
343.250020
 20
-432.999990
 42
0.000000
 10
349.500020
 20
-431.249990
 42
0.000000
 10
342.250020
 20
-428.499990
 42
0.000000
 10
349.500020
 20
-425.749980
 42
0.000000
 10
343.250020
 20
-423.999980
 42
0.000000
 97
     0
 92
     2
 72
     1
 73
     0
 93
     5
 10
354.327940
 20
-451.988170
 42
0.000000
 10
363.893170
 20
-451.988160
 42
0.000000
 10
363.893160
 20
-445.292510
 42
0.000000
 10
354.327940
 20
-445.292510
 42
0.000000
 10
354.327940
 20
-451.988170
 42
0.000000
 97
     0
 92
     2
 72
     1
 73
     0
 93
     5
 10
365.806200
 20
-445.292510
 42
0.000000
 10
365.806200
 20
-451.988170
 42
0.000000
 10
367.241000
 20
-451.988160
 42
0.000000
 10
367.240990
 20
-445.292510
 42
0.000000
 10
365.806210
 20
-445.292510
 42
0.000000
 97
     0
 92
     2
 72
     1
 73
     0
 93
    13
 10
369.154030
 20
-445.292510
 42
0.000000
 10
369.154030
 20
-451.988170
 42
0.000000
 10
377.762730
 20
-451.988150
 42
0.000000
 10
377.762730
 20
-450.553380
 42
0.000000
 10
370.588810
 20
-450.553380
 42
0.000000
 10
370.588810
 20
-449.357730
 42
0.000000
 10
377.762730
 20
-449.357730
 42
0.000000
 10
377.762730
 20
-447.922950
 42
0.000000
 10
370.588810
 20
-447.922950
 42
0.000000
 10
370.588810
 20
-446.727300
 42
0.000000
 10
377.762730
 20
-446.727300
 42
0.000000
 10
377.762730
 20
-445.292510
 42
0.000000
 10
369.154040
 20
-445.292500
 42
0.000000
 97
     0
 92
     2
 72
     1
 73
     0
 93
    13
 10
379.675770
 20
-445.292510
 42
0.000000
 10
379.675770
 20
-449.357730
 42
0.000000
 10
387.088810
 20
-449.357730
 42
0.000000
 10
387.088810
 20
-450.553380
 42
0.000000
 10
379.675770
 20
-450.553380
 42
0.000000
 10
379.675770
 20
-451.988170
 42
0.000000
 10
388.523600
 20
-451.988150
 42
0.000000
 10
388.523600
 20
-447.922950
 42
0.000000
 10
381.110550
 20
-447.922950
 42
0.000000
 10
381.110550
 20
-446.727300
 42
0.000000
 10
388.523600
 20
-446.727300
 42
0.000000
 10
388.523600
 20
-445.292510
 42
0.000000
 10
379.675770
 20
-445.292500
 42
0.000000
 97
     0
 92
     2
 72
     1
 73
     0
 93
    13
 10
390.675770
 20
-445.292510
 42
0.000000
 10
390.675770
 20
-451.988170
 42
0.000000
 10
398.806210
 20
-451.988150
 42
0.000000
 10
398.806200
 20
-450.553380
 42
0.000000
 10
392.110550
 20
-450.553380
 42
0.000000
 10
392.110550
 20
-449.357730
 42
0.000000
 10
398.806200
 20
-449.357730
 42
0.000000
 10
398.806200
 20
-447.922950
 42
0.000000
 10
392.110550
 20
-447.922950
 42
0.000000
 10
392.110550
 20
-446.727300
 42
0.000000
 10
398.806200
 20
-446.727300
 42
0.000000
 10
398.806200
 20
-445.292510
 42
0.000000
 10
390.675770
 20
-445.292500
 42
0.000000
 97
     0
 92
     2
 72
     1
 73
     0
 93
     7
 10
400.719250
 20
-445.292510
 42
0.000000
 10
400.719250
 20
-451.988170
 42
0.000000
 10
408.371430
 20
-451.988170
 42
0.000000
 10
408.371430
 20
-450.553380
 42
0.000000
 10
402.154040
 20
-450.553380
 42
0.000000
 10
402.154040
 20
-445.292510
 42
0.000000
 10
400.719250
 20
-445.292500
 42
0.000000
 97
     0
 75
     0
 76
     0
 52
0.000000
 41
1.000000
 77
     0
 78
     1
 53
0.000000
 43
-0.000000
 44
0.000000
 45
-0.000000
 46
0.225000
 79
     0
 98
     0
  0
HATCH
  5
852
100
AcDbEntity
  8
SCHRAFF
  6
CONTINUOUS
 62
     4
100
AcDbHatch
 10
0.000000
 20
0.000000
 30
0.000000
210
0.000000
220
0.000000
230
1.000000
  2
_U
 70
     0
 71
     1
 91
     1
 92
    18
 72
     1
 73
     0
 93
    13
 10
357.750020
 20
-421.499990
 42
0.000000
 10
357.750020
 20
-435.499990
 42
0.000000
 10
361.500030
 20
-435.499990
 42
0.000000
 10
361.500030
 20
-430.249990
 42
0.000000
 10
364.750030
 20
-430.249990
 42
0.000000
 10
364.750030
 20
-435.499990
 42
0.000000
 10
368.500020
 20
-435.499990
 42
0.000000
 10
368.500020
 20
-421.499990
 42
0.000000
 10
364.750030
 20
-421.499990
 42
0.000000
 10
364.750030
 20
-426.749990
 42
0.000000
 10
361.500030
 20
-426.749990
 42
0.000000
 10
361.500030
 20
-421.499990
 42
0.000000
 10
357.750020
 20
-421.499990
 42
0.000000
 97
     0
 75
     0
 76
     0
 52
0.000000
 41
1.000000
 77
     0
 78
     1
 53
0.000000
 43
-0.000000
 44
0.000000
 45
-0.000000
 46
0.225000
 79
     0
 98
     0
  0
HATCH
  5
853
100
AcDbEntity
  8
SCHRAFF
  6
CONTINUOUS
 62
     4
100
AcDbHatch
 10
0.000000
 20
0.000000
 30
0.000000
210
0.000000
220
0.000000
230
1.000000
  2
_U
 70
     0
 71
     1
 91
     2
 92
    18
 72
     1
 73
     0
 93
     9
 10
370.000020
 20
-435.499990
 42
0.000000
 10
373.750020
 20
-435.499990
 42
0.000000
 10
374.392880
 20
-433.499990
 42
0.000000
 10
378.107170
 20
-433.499990
 42
0.000000
 10
378.750020
 20
-435.499990
 42
0.000000
 10
382.500020
 20
-435.499990
 42
0.000000
 10
378.250020
 20
-421.499990
 42
0.000000
 10
374.250020
 20
-421.499990
 42
0.000000
 10
370.000020
 20
-435.499990
 42
0.000000
 97
     0
 92
     2
 72
     1
 73
     0
 93
     4
 10
377.223240
 20
-430.749990
 42
0.000000
 10
376.250020
 20
-427.722210
 42
0.000000
 10
375.276810
 20
-430.749990
 42
0.000000
 10
377.223240
 20
-430.749990
 42
0.000000
 97
     0
 75
     0
 76
     0
 52
0.000000
 41
1.000000
 77
     0
 78
     1
 53
0.000000
 43
-0.000000
 44
0.000000
 45
-0.000000
 46
0.225000
 79
     0
 98
     0
  0
HATCH
  5
854
100
AcDbEntity
  8
SCHRAFF
  6
CONTINUOUS
 62
     4
100
AcDbHatch
 10
0.000000
 20
0.000000
 30
0.000000
210
0.000000
220
0.000000
230
1.000000
  2
_U
 70
     0
 71
     1
 91
     1
 92
    18
 72
     1
 73
     0
 93
     9
 10
385.000020
 20
-424.999990
 42
0.000000
 10
385.000020
 20
-435.499990
 42
0.000000
 10
388.750020
 20
-435.499990
 42
0.000000
 10
388.750020
 20
-424.999990
 42
0.000000
 10
391.250030
 20
-424.999990
 42
0.000000
 10
391.250030
 20
-421.499990
 42
0.000000
 10
382.500020
 20
-421.499990
 42
0.000000
 10
382.500020
 20
-424.999990
 42
0.000000
 10
385.000020
 20
-424.999990
 42
0.000000
 97
     0
 75
     0
 76
     0
 52
0.000000
 41
1.000000
 77
     0
 78
     1
 53
0.000000
 43
-0.000000
 44
0.000000
 45
-0.000000
 46
0.225000
 79
     0
 98
     0
  0
HATCH
  5
855
100
AcDbEntity
  8
SCHRAFF
  6
CONTINUOUS
 62
     4
100
AcDbHatch
 10
0.000000
 20
0.000000
 30
0.000000
210
0.000000
220
0.000000
230
1.000000
  2
_U
 70
     0
 71
     1
 91
     1
 92
    18
 72
     1
 73
     0
 93
     9
 10
397.250030
 20
-424.999990
 42
0.000000
 10
392.250030
 20
-435.499990
 42
0.000000
 10
402.500020
 20
-435.499990
 42
0.000000
 10
402.500020
 20
-431.999990
 42
0.000000
 10
398.000020
 20
-431.999990
 42
0.000000
 10
403.000020
 20
-421.499990
 42
0.000000
 10
392.750020
 20
-421.499990
 42
0.000000
 10
392.750020
 20
-424.999990
 42
0.000000
 10
397.250030
 20
-424.999990
 42
0.000000
 97
     0
 75
     0
 76
     0
 52
0.000000
 41
1.000000
 77
     0
 78
     1
 53
0.000000
 43
-0.000000
 44
0.000000
 45
-0.000000
 46
0.225000
 79
     0
 98
     0
  0
HATCH
  5
856
100
AcDbEntity
  8
SCHRAFF
  6
CONTINUOUS
 62
     4
100
AcDbHatch
 10
0.000000
 20
0.000000
 30
0.000000
210
0.000000
220
0.000000
230
1.000000
  2
_U
 70
     0
 71
     1
 91
     1
 92
    18
 72
     1
 73
     0
 93
     5
 10
355.762730
 20
-450.553380
 42
0.000000
 10
362.458380
 20
-450.553380
 42
0.000000
 10
362.458380
 20
-446.727300
 42
0.000000
 10
355.762730
 20
-446.727300
 42
0.000000
 10
355.762730
 20
-450.553380
 42
0.000000
 97
     0
 75
     0
 76
     0
 52
0.000000
 41
1.000000
 77
     0
 78
     1
 53
0.000000
 43
-0.000000
 44
0.000000
 45
-0.000000
 46
0.225000
 79
     0
 98
     0
  0
LINE
  5
857
100
AcDbEntity
  8
L
  6
CONTINUOUS
 62
     2
100
AcDbLine
 10
421.250020
 20
-488.749990
 11
421.250020
 21
-456.249980
  0
LINE
  5
858
100
AcDbEntity
  8
L
  6
CONTINUOUS
 62
     4
100
AcDbLine
 10
421.250020
 20
-473.749960
 11
706.250020
 21
-473.749960
  0
LINE
  5
859
100
AcDbEntity
  8
L
  6
CONTINUOUS
 62
     3
100
AcDbLine
 10
342.250020
 20
-428.499980
 11
349.500020
 21
-431.249980
  0
LINE
  5
85A
100
AcDbEntity
  8
L
  6
CONTINUOUS
 62
     3
100
AcDbLine
 10
349.500020
 20
-431.249980
 11
343.250020
 21
-432.999980
  0
LINE
  5
85B
100
AcDbEntity
  8
L
  6
CONTINUOUS
 62
     3
100
AcDbLine
 10
343.250020
 20
-432.999980
 11
350.500020
 21
-434.999980
  0
LINE
  5
85C
100
AcDbEntity
  8
L
  6
CONTINUOUS
 62
     3
100
AcDbLine
 10
350.500020
 20
-434.999980
 11
345.250020
 21
-436.749980
  0
LINE
  5
85D
100
AcDbEntity
  8
L
  6
CONTINUOUS
 62
     3
100
AcDbLine
 10
345.250020
 20
-436.749980
 11
352.500020
 21
-438.749980
  0
LINE
  5
85E
100
AcDbEntity
  8
L
  6
CONTINUOUS
 62
     3
100
AcDbLine
 10
352.500020
 20
-438.749980
 11
348.750020
 21
-440.499980
  0
LINE
  5
85F
100
AcDbEntity
  8
L
  6
CONTINUOUS
 62
     3
100
AcDbLine
 10
348.750020
 20
-440.499980
 11
352.500020
 21
-440.499980
  0
LINE
  5
860
100
AcDbEntity
  8
L
  6
CONTINUOUS
 62
     3
100
AcDbLine
 10
352.500020
 20
-416.499970
 11
407.500020
 21
-416.499980
  0
LINE
  5
861
100
AcDbEntity
  8
L
  6
CONTINUOUS
 62
     3
100
AcDbLine
 10
407.500020
 20
-440.499990
 11
352.500020
 21
-440.499980
  0
LINE
  5
862
100
AcDbEntity
  8
L
  6
CONTINUOUS
 62
     3
100
AcDbLine
 10
342.250020
 20
-428.499970
 11
349.500020
 21
-425.749970
  0
LINE
  5
863
100
AcDbEntity
  8
L
  6
CONTINUOUS
 62
     3
100
AcDbLine
 10
349.500020
 20
-425.749970
 11
343.250020
 21
-423.999970
  0
LINE
  5
864
100
AcDbEntity
  8
L
  6
CONTINUOUS
 62
     3
100
AcDbLine
 10
343.250020
 20
-423.999970
 11
350.500020
 21
-421.999970
  0
LINE
  5
865
100
AcDbEntity
  8
L
  6
CONTINUOUS
 62
     3
100
AcDbLine
 10
350.500020
 20
-421.999970
 11
345.250020
 21
-420.249970
  0
LINE
  5
866
100
AcDbEntity
  8
L
  6
CONTINUOUS
 62
     3
100
AcDbLine
 10
345.250020
 20
-420.249970
 11
352.500020
 21
-418.249970
  0
LINE
  5
867
100
AcDbEntity
  8
L
  6
CONTINUOUS
 62
     3
100
AcDbLine
 10
352.500020
 20
-418.249970
 11
348.750020
 21
-416.499970
  0
LINE
  5
868
100
AcDbEntity
  8
L
  6
CONTINUOUS
 62
     3
100
AcDbLine
 10
348.750020
 20
-416.499970
 11
352.500020
 21
-416.499970
  0
LINE
  5
869
100
AcDbEntity
  8
L
  6
CONTINUOUS
 62
     2
100
AcDbLine
 10
338.750030
 20
-456.249980
 11
421.250020
 21
-456.249980
  0
LINE
  5
86A
100
AcDbEntity
  8
L
  6
CONTINUOUS
 62
     2
100
AcDbLine
 10
421.250020
 20
-368.750000
 11
338.750030
 21
-368.750000
  0
LINE
  5
86B
100
AcDbEntity
  8
L
  6
CONTINUOUS
 62
     3
100
AcDbLine
 10
357.750020
 20
-421.499980
 11
361.500030
 21
-421.499980
  0
LINE
  5
86C
100
AcDbEntity
  8
L
  6
CONTINUOUS
 62
     3
100
AcDbLine
 10
361.500030
 20
-421.499980
 11
361.500030
 21
-426.749980
  0
LINE
  5
86D
100
AcDbEntity
  8
L
  6
CONTINUOUS
 62
     3
100
AcDbLine
 10
361.500030
 20
-426.749980
 11
364.750030
 21
-426.749980
  0
LINE
  5
86E
100
AcDbEntity
  8
L
  6
CONTINUOUS
 62
     3
100
AcDbLine
 10
364.750030
 20
-426.749980
 11
364.750030
 21
-421.499980
  0
LINE
  5
86F
100
AcDbEntity
  8
L
  6
CONTINUOUS
 62
     3
100
AcDbLine
 10
364.750030
 20
-421.499980
 11
368.500020
 21
-421.499980
  0
LINE
  5
870
100
AcDbEntity
  8
L
  6
CONTINUOUS
 62
     3
100
AcDbLine
 10
368.500020
 20
-421.499980
 11
368.500020
 21
-435.499980
  0
LINE
  5
871
100
AcDbEntity
  8
L
  6
CONTINUOUS
 62
     3
100
AcDbLine
 10
368.500020
 20
-435.499980
 11
364.750030
 21
-435.499980
  0
LINE
  5
872
100
AcDbEntity
  8
L
  6
CONTINUOUS
 62
     3
100
AcDbLine
 10
364.750030
 20
-435.499980
 11
364.750030
 21
-430.249980
  0
LINE
  5
873
100
AcDbEntity
  8
L
  6
CONTINUOUS
 62
     3
100
AcDbLine
 10
364.750030
 20
-430.249980
 11
361.500030
 21
-430.249980
  0
LINE
  5
874
100
AcDbEntity
  8
L
  6
CONTINUOUS
 62
     3
100
AcDbLine
 10
361.500030
 20
-430.249980
 11
361.500030
 21
-435.499980
  0
LINE
  5
875
100
AcDbEntity
  8
L
  6
CONTINUOUS
 62
     3
100
AcDbLine
 10
361.500030
 20
-435.499980
 11
357.750020
 21
-435.499980
  0
LINE
  5
876
100
AcDbEntity
  8
L
  6
CONTINUOUS
 62
     3
100
AcDbLine
 10
357.750020
 20
-435.499980
 11
357.750020
 21
-421.499980
  0
LINE
  5
877
100
AcDbEntity
  8
L
  6
CONTINUOUS
 62
     3
100
AcDbLine
 10
370.000020
 20
-435.499980
 11
373.750020
 21
-435.499980
  0
LINE
  5
878
100
AcDbEntity
  8
L
  6
CONTINUOUS
 62
     3
100
AcDbLine
 10
370.000020
 20
-435.499980
 11
374.250020
 21
-421.499980
  0
LINE
  5
879
100
AcDbEntity
  8
L
  6
CONTINUOUS
 62
     3
100
AcDbLine
 10
374.250020
 20
-421.499980
 11
378.250020
 21
-421.499980
  0
LINE
  5
87A
100
AcDbEntity
  8
L
  6
CONTINUOUS
 62
     3
100
AcDbLine
 10
378.250020
 20
-421.499980
 11
382.500020
 21
-435.499980
  0
LINE
  5
87B
100
AcDbEntity
  8
L
  6
CONTINUOUS
 62
     3
100
AcDbLine
 10
382.500020
 20
-435.499980
 11
378.750020
 21
-435.499980
  0
LINE
  5
87C
100
AcDbEntity
  8
L
  6
CONTINUOUS
 62
     3
100
AcDbLine
 10
378.750020
 20
-435.499980
 11
378.107170
 21
-433.499980
  0
LINE
  5
87D
100
AcDbEntity
  8
L
  6
CONTINUOUS
 62
     3
100
AcDbLine
 10
377.223240
 20
-430.749980
 11
376.250020
 21
-427.722200
  0
LINE
  5
87E
100
AcDbEntity
  8
L
  6
CONTINUOUS
 62
     3
100
AcDbLine
 10
373.750020
 20
-435.499980
 11
374.392880
 21
-433.499980
  0
LINE
  5
87F
100
AcDbEntity
  8
L
  6
CONTINUOUS
 62
     3
100
AcDbLine
 10
375.276810
 20
-430.749980
 11
376.250020
 21
-427.722200
  0
LINE
  5
880
100
AcDbEntity
  8
L
  6
CONTINUOUS
 62
     3
100
AcDbLine
 10
374.392880
 20
-433.499980
 11
378.107170
 21
-433.499980
  0
LINE
  5
881
100
AcDbEntity
  8
L
  6
CONTINUOUS
 62
     3
100
AcDbLine
 10
375.276810
 20
-430.749980
 11
377.223240
 21
-430.749980
  0
LINE
  5
882
100
AcDbEntity
  8
L
  6
CONTINUOUS
 62
     3
100
AcDbLine
 10
382.500020
 20
-421.499980
 11
382.500020
 21
-424.999980
  0
LINE
  5
883
100
AcDbEntity
  8
L
  6
CONTINUOUS
 62
     3
100
AcDbLine
 10
382.500020
 20
-424.999980
 11
385.000020
 21
-424.999980
  0
LINE
  5
884
100
AcDbEntity
  8
L
  6
CONTINUOUS
 62
     3
100
AcDbLine
 10
385.000020
 20
-424.999980
 11
385.000020
 21
-435.499980
  0
LINE
  5
885
100
AcDbEntity
  8
L
  6
CONTINUOUS
 62
     3
100
AcDbLine
 10
385.000020
 20
-435.499980
 11
388.750020
 21
-435.499980
  0
LINE
  5
886
100
AcDbEntity
  8
L
  6
CONTINUOUS
 62
     3
100
AcDbLine
 10
388.750020
 20
-435.499980
 11
388.750020
 21
-424.999980
  0
LINE
  5
887
100
AcDbEntity
  8
L
  6
CONTINUOUS
 62
     3
100
AcDbLine
 10
388.750020
 20
-424.999980
 11
391.250030
 21
-424.999980
  0
LINE
  5
888
100
AcDbEntity
  8
L
  6
CONTINUOUS
 62
     3
100
AcDbLine
 10
391.250030
 20
-424.999980
 11
391.250030
 21
-421.499980
  0
LINE
  5
889
100
AcDbEntity
  8
L
  6
CONTINUOUS
 62
     3
100
AcDbLine
 10
391.250030
 20
-421.499980
 11
382.500020
 21
-421.499980
  0
LINE
  5
88A
100
AcDbEntity
  8
L
  6
CONTINUOUS
 62
     3
100
AcDbLine
 10
392.750020
 20
-421.499980
 11
403.000020
 21
-421.499980
  0
LINE
  5
88B
100
AcDbEntity
  8
L
  6
CONTINUOUS
 62
     3
100
AcDbLine
 10
392.750020
 20
-421.499980
 11
392.750020
 21
-424.999980
  0
LINE
  5
88C
100
AcDbEntity
  8
L
  6
CONTINUOUS
 62
     3
100
AcDbLine
 10
392.750020
 20
-424.999980
 11
397.250030
 21
-424.999980
  0
LINE
  5
88D
100
AcDbEntity
  8
L
  6
CONTINUOUS
 62
     3
100
AcDbLine
 10
397.250030
 20
-424.999980
 11
392.250030
 21
-435.499980
  0
LINE
  5
88E
100
AcDbEntity
  8
L
  6
CONTINUOUS
 62
     3
100
AcDbLine
 10
392.250030
 20
-435.499980
 11
402.500020
 21
-435.499980
  0
LINE
  5
88F
100
AcDbEntity
  8
L
  6
CONTINUOUS
 62
     3
100
AcDbLine
 10
402.500020
 20
-435.499980
 11
402.500020
 21
-431.999980
  0
LINE
  5
890
100
AcDbEntity
  8
L
  6
CONTINUOUS
 62
     3
100
AcDbLine
 10
402.500020
 20
-431.999980
 11
398.000020
 21
-431.999980
  0
LINE
  5
891
100
AcDbEntity
  8
L
  6
CONTINUOUS
 62
     3
100
AcDbLine
 10
398.000020
 20
-431.999980
 11
403.000020
 21
-421.499980
  0
LINE
  5
892
100
AcDbEntity
  8
L
  6
CONTINUOUS
 62
     3
100
AcDbLine
 10
417.750020
 20
-428.499980
 11
410.500020
 21
-431.249990
  0
LINE
  5
893
100
AcDbEntity
  8
L
  6
CONTINUOUS
 62
     3
100
AcDbLine
 10
410.500020
 20
-431.249990
 11
416.750020
 21
-432.999990
  0
LINE
  5
894
100
AcDbEntity
  8
L
  6
CONTINUOUS
 62
     3
100
AcDbLine
 10
416.750020
 20
-432.999990
 11
409.500020
 21
-434.999990
  0
LINE
  5
895
100
AcDbEntity
  8
L
  6
CONTINUOUS
 62
     3
100
AcDbLine
 10
409.500020
 20
-434.999990
 11
414.750020
 21
-436.749990
  0
LINE
  5
896
100
AcDbEntity
  8
L
  6
CONTINUOUS
 62
     3
100
AcDbLine
 10
414.750020
 20
-436.749990
 11
407.500020
 21
-438.749990
  0
LINE
  5
897
100
AcDbEntity
  8
L
  6
CONTINUOUS
 62
     3
100
AcDbLine
 10
407.500020
 20
-438.749990
 11
411.250020
 21
-440.499990
  0
LINE
  5
898
100
AcDbEntity
  8
L
  6
CONTINUOUS
 62
     3
100
AcDbLine
 10
411.250020
 20
-440.499990
 11
407.500020
 21
-440.499990
  0
LINE
  5
899
100
AcDbEntity
  8
L
  6
CONTINUOUS
 62
     3
100
AcDbLine
 10
417.750020
 20
-428.499980
 11
410.500030
 21
-425.749970
  0
LINE
  5
89A
100
AcDbEntity
  8
L
  6
CONTINUOUS
 62
     3
100
AcDbLine
 10
410.500030
 20
-425.749970
 11
416.750020
 21
-423.999970
  0
LINE
  5
89B
100
AcDbEntity
  8
L
  6
CONTINUOUS
 62
     3
100
AcDbLine
 10
416.750020
 20
-423.999970
 11
409.500030
 21
-421.999970
  0
LINE
  5
89C
100
AcDbEntity
  8
L
  6
CONTINUOUS
 62
     3
100
AcDbLine
 10
409.500030
 20
-421.999970
 11
414.750020
 21
-420.249970
  0
LINE
  5
89D
100
AcDbEntity
  8
L
  6
CONTINUOUS
 62
     3
100
AcDbLine
 10
414.750020
 20
-420.249970
 11
407.500030
 21
-418.249970
  0
LINE
  5
89E
100
AcDbEntity
  8
L
  6
CONTINUOUS
 62
     3
100
AcDbLine
 10
407.500030
 20
-418.249970
 11
411.250030
 21
-416.499970
  0
LINE
  5
89F
100
AcDbEntity
  8
L
  6
CONTINUOUS
 62
     3
100
AcDbLine
 10
411.250030
 20
-416.499970
 11
407.500030
 21
-416.499970
  0
LINE
  5
8A0
100
AcDbEntity
  8
L
  6
CONTINUOUS
 62
     3
100
AcDbLine
 10
354.327940
 20
-451.988160
 11
363.893170
 21
-451.988150
  0
LINE
  5
8A1
100
AcDbEntity
  8
L
  6
CONTINUOUS
 62
     3
100
AcDbLine
 10
365.806210
 20
-451.988150
 11
367.241000
 21
-451.988150
  0
LINE
  5
8A2
100
AcDbEntity
  8
L
  6
CONTINUOUS
 62
     3
100
AcDbLine
 10
369.154040
 20
-451.988150
 11
377.762730
 21
-451.988140
  0
LINE
  5
8A3
100
AcDbEntity
  8
L
  6
CONTINUOUS
 62
     3
100
AcDbLine
 10
379.675770
 20
-451.988140
 11
388.523600
 21
-451.988140
  0
LINE
  5
8A4
100
AcDbEntity
  8
L
  6
CONTINUOUS
 62
     3
100
AcDbLine
 10
390.675770
 20
-451.988140
 11
398.806210
 21
-451.988140
  0
LINE
  5
8A5
100
AcDbEntity
  8
L
  6
CONTINUOUS
 62
     3
100
AcDbLine
 10
400.719250
 20
-451.988150
 11
408.371430
 21
-451.988160
  0
LINE
  5
8A6
100
AcDbEntity
  8
L
  6
CONTINUOUS
 62
     3
100
AcDbLine
 10
363.893160
 20
-451.988160
 11
363.893160
 21
-445.292500
  0
LINE
  5
8A7
100
AcDbEntity
  8
L
  6
CONTINUOUS
 62
     3
100
AcDbLine
 10
402.154040
 20
-445.292500
 11
400.719250
 21
-445.292490
  0
LINE
  5
8A8
100
AcDbEntity
  8
L
  6
CONTINUOUS
 62
     3
100
AcDbLine
 10
398.806210
 20
-445.292490
 11
390.675770
 21
-445.292490
  0
LINE
  5
8A9
100
AcDbEntity
  8
L
  6
CONTINUOUS
 62
     3
100
AcDbLine
 10
388.523600
 20
-445.292490
 11
379.675770
 21
-445.292490
  0
LINE
  5
8AA
100
AcDbEntity
  8
L
  6
CONTINUOUS
 62
     3
100
AcDbLine
 10
377.762730
 20
-445.292490
 11
369.154040
 21
-445.292490
  0
LINE
  5
8AB
100
AcDbEntity
  8
L
  6
CONTINUOUS
 62
     3
100
AcDbLine
 10
367.241000
 20
-445.292490
 11
365.806210
 21
-445.292500
  0
LINE
  5
8AC
100
AcDbEntity
  8
L
  6
CONTINUOUS
 62
     3
100
AcDbLine
 10
363.893170
 20
-445.292500
 11
354.327940
 21
-445.292500
  0
LINE
  5
8AD
100
AcDbEntity
  8
L
  6
CONTINUOUS
 62
     3
100
AcDbLine
 10
354.327940
 20
-445.292500
 11
354.327940
 21
-451.988160
  0
LINE
  5
8AE
100
AcDbEntity
  8
L
  6
CONTINUOUS
 62
     3
100
AcDbLine
 10
355.762730
 20
-446.727290
 11
355.762730
 21
-450.553370
  0
LINE
  5
8AF
100
AcDbEntity
  8
L
  6
CONTINUOUS
 62
     3
100
AcDbLine
 10
355.762730
 20
-450.553370
 11
362.458380
 21
-450.553370
  0
LINE
  5
8B0
100
AcDbEntity
  8
L
  6
CONTINUOUS
 62
     3
100
AcDbLine
 10
362.458380
 20
-450.553370
 11
362.458380
 21
-446.727290
  0
LINE
  5
8B1
100
AcDbEntity
  8
L
  6
CONTINUOUS
 62
     3
100
AcDbLine
 10
362.458380
 20
-446.727290
 11
355.762730
 21
-446.727290
  0
LINE
  5
8B2
100
AcDbEntity
  8
L
  6
CONTINUOUS
 62
     3
100
AcDbLine
 10
365.806200
 20
-445.292500
 11
365.806200
 21
-451.988160
  0
LINE
  5
8B3
100
AcDbEntity
  8
L
  6
CONTINUOUS
 62
     3
100
AcDbLine
 10
367.240990
 20
-451.988160
 11
367.240990
 21
-445.292500
  0
LINE
  5
8B4
100
AcDbEntity
  8
L
  6
CONTINUOUS
 62
     3
100
AcDbLine
 10
377.762730
 20
-445.292500
 11
377.762730
 21
-446.727290
  0
LINE
  5
8B5
100
AcDbEntity
  8
L
  6
CONTINUOUS
 62
     3
100
AcDbLine
 10
377.762730
 20
-446.727290
 11
370.588810
 21
-446.727290
  0
LINE
  5
8B6
100
AcDbEntity
  8
L
  6
CONTINUOUS
 62
     3
100
AcDbLine
 10
370.588810
 20
-446.727290
 11
370.588810
 21
-447.922940
  0
LINE
  5
8B7
100
AcDbEntity
  8
L
  6
CONTINUOUS
 62
     3
100
AcDbLine
 10
370.588810
 20
-447.922940
 11
377.762730
 21
-447.922940
  0
LINE
  5
8B8
100
AcDbEntity
  8
L
  6
CONTINUOUS
 62
     3
100
AcDbLine
 10
377.762730
 20
-447.922940
 11
377.762730
 21
-449.357720
  0
LINE
  5
8B9
100
AcDbEntity
  8
L
  6
CONTINUOUS
 62
     3
100
AcDbLine
 10
377.762730
 20
-449.357720
 11
370.588810
 21
-449.357720
  0
LINE
  5
8BA
100
AcDbEntity
  8
L
  6
CONTINUOUS
 62
     3
100
AcDbLine
 10
370.588810
 20
-449.357720
 11
370.588810
 21
-450.553370
  0
LINE
  5
8BB
100
AcDbEntity
  8
L
  6
CONTINUOUS
 62
     3
100
AcDbLine
 10
370.588810
 20
-450.553370
 11
377.762730
 21
-450.553370
  0
LINE
  5
8BC
100
AcDbEntity
  8
L
  6
CONTINUOUS
 62
     3
100
AcDbLine
 10
377.762730
 20
-450.553370
 11
377.762730
 21
-451.988160
  0
LINE
  5
8BD
100
AcDbEntity
  8
L
  6
CONTINUOUS
 62
     3
100
AcDbLine
 10
369.154030
 20
-451.988160
 11
369.154030
 21
-445.292500
  0
LINE
  5
8BE
100
AcDbEntity
  8
L
  6
CONTINUOUS
 62
     3
100
AcDbLine
 10
388.523600
 20
-445.292500
 11
388.523600
 21
-446.727290
  0
LINE
  5
8BF
100
AcDbEntity
  8
L
  6
CONTINUOUS
 62
     3
100
AcDbLine
 10
388.523600
 20
-446.727290
 11
381.110550
 21
-446.727290
  0
LINE
  5
8C0
100
AcDbEntity
  8
L
  6
CONTINUOUS
 62
     3
100
AcDbLine
 10
381.110550
 20
-446.727290
 11
381.110550
 21
-447.922940
  0
LINE
  5
8C1
100
AcDbEntity
  8
L
  6
CONTINUOUS
 62
     3
100
AcDbLine
 10
381.110550
 20
-447.922940
 11
388.523600
 21
-447.922940
  0
LINE
  5
8C2
100
AcDbEntity
  8
L
  6
CONTINUOUS
 62
     3
100
AcDbLine
 10
388.523600
 20
-447.922940
 11
388.523600
 21
-451.988160
  0
LINE
  5
8C3
100
AcDbEntity
  8
L
  6
CONTINUOUS
 62
     3
100
AcDbLine
 10
379.675770
 20
-451.988160
 11
379.675770
 21
-450.553370
  0
LINE
  5
8C4
100
AcDbEntity
  8
L
  6
CONTINUOUS
 62
     3
100
AcDbLine
 10
379.675770
 20
-450.553370
 11
387.088810
 21
-450.553370
  0
LINE
  5
8C5
100
AcDbEntity
  8
L
  6
CONTINUOUS
 62
     3
100
AcDbLine
 10
387.088810
 20
-450.553370
 11
387.088810
 21
-449.357720
  0
LINE
  5
8C6
100
AcDbEntity
  8
L
  6
CONTINUOUS
 62
     3
100
AcDbLine
 10
387.088810
 20
-449.357720
 11
379.675770
 21
-449.357720
  0
LINE
  5
8C7
100
AcDbEntity
  8
L
  6
CONTINUOUS
 62
     3
100
AcDbLine
 10
379.675770
 20
-449.357720
 11
379.675770
 21
-445.292500
  0
LINE
  5
8C8
100
AcDbEntity
  8
L
  6
CONTINUOUS
 62
     3
100
AcDbLine
 10
398.806200
 20
-445.292500
 11
398.806200
 21
-446.727290
  0
LINE
  5
8C9
100
AcDbEntity
  8
L
  6
CONTINUOUS
 62
     3
100
AcDbLine
 10
398.806200
 20
-446.727290
 11
392.110550
 21
-446.727290
  0
LINE
  5
8CA
100
AcDbEntity
  8
L
  6
CONTINUOUS
 62
     3
100
AcDbLine
 10
392.110550
 20
-446.727290
 11
392.110550
 21
-447.922940
  0
LINE
  5
8CB
100
AcDbEntity
  8
L
  6
CONTINUOUS
 62
     3
100
AcDbLine
 10
392.110550
 20
-447.922940
 11
398.806200
 21
-447.922940
  0
LINE
  5
8CC
100
AcDbEntity
  8
L
  6
CONTINUOUS
 62
     3
100
AcDbLine
 10
398.806200
 20
-447.922940
 11
398.806200
 21
-449.357720
  0
LINE
  5
8CD
100
AcDbEntity
  8
L
  6
CONTINUOUS
 62
     3
100
AcDbLine
 10
398.806200
 20
-449.357720
 11
392.110550
 21
-449.357720
  0
LINE
  5
8CE
100
AcDbEntity
  8
L
  6
CONTINUOUS
 62
     3
100
AcDbLine
 10
392.110550
 20
-449.357720
 11
392.110550
 21
-450.553370
  0
LINE
  5
8CF
100
AcDbEntity
  8
L
  6
CONTINUOUS
 62
     3
100
AcDbLine
 10
392.110550
 20
-450.553370
 11
398.806200
 21
-450.553370
  0
LINE
  5
8D0
100
AcDbEntity
  8
L
  6
CONTINUOUS
 62
     3
100
AcDbLine
 10
398.806200
 20
-450.553370
 11
398.806200
 21
-451.988160
  0
LINE
  5
8D1
100
AcDbEntity
  8
L
  6
CONTINUOUS
 62
     3
100
AcDbLine
 10
390.675770
 20
-451.988160
 11
390.675770
 21
-445.292500
  0
LINE
  5
8D2
100
AcDbEntity
  8
L
  6
CONTINUOUS
 62
     3
100
AcDbLine
 10
400.719250
 20
-445.292500
 11
400.719250
 21
-451.988160
  0
LINE
  5
8D3
100
AcDbEntity
  8
L
  6
CONTINUOUS
 62
     3
100
AcDbLine
 10
408.371430
 20
-451.988160
 11
408.371430
 21
-450.553370
  0
LINE
  5
8D4
100
AcDbEntity
  8
L
  6
CONTINUOUS
 62
     3
100
AcDbLine
 10
408.371430
 20
-450.553370
 11
402.154040
 21
-450.553370
  0
LINE
  5
8D5
100
AcDbEntity
  8
L
  6
CONTINUOUS
 62
     3
100
AcDbLine
 10
402.154040
 20
-450.553370
 11
402.154040
 21
-445.292500
  0
LINE
  5
8D6
100
AcDbEntity
  8
L
  6
CONTINUOUS
 62
     2
100
AcDbLine
 10
338.750020
 20
-368.749980
 11
338.750030
 21
-456.249980
  0
LINE
  5
8D7
100
AcDbEntity
  8
L
  6
CONTINUOUS
 62
     2
100
AcDbLine
 10
421.250020
 20
-456.249980
 11
421.250020
 21
-368.749980
  0
LINE
  5
8D8
100
AcDbEntity
  8
L
  6
CONTINUOUS
 62
     2
100
AcDbLine
 10
338.750050
 20
-456.250000
 11
338.750050
 21
-488.749990
  0
LINE
  5
8D9
100
AcDbEntity
  8
L
  6
CONTINUOUS
 62
     2
100
AcDbLine
 10
421.250020
 20
-368.749980
 11
706.250020
 21
-368.749980
  0
TEXT
  5
8DA
100
AcDbEntity
  8
L
 62
     3
100
AcDbText
 10
344.145430
 20
-465.643665
 30
0.000000
 40
6.250000
  1
MOTORENFABRIK
 50
0.000000
 41
0.923825
 51
0.000000
  7
TXT8
 72
     0
 11
344.145430
 21
-465.643665
 31
0.000000
100
AcDbText
 73
     0
  0
TEXT
  5
8DB
100
AcDbEntity
  8
L
 62
     3
100
AcDbText
 10
344.145430
 20
-474.393665
 30
0.000000
 40
6.250000
  1
     HATZ
 50
0.000000
 41
0.899654
 51
0.000000
  7
TXT8
 72
     0
 11
344.145430
 21
-474.393665
 31
0.000000
100
AcDbText
 73
     0
  0
TEXT
  5
8DC
100
AcDbEntity
  8
L
 62
     3
100
AcDbText
 10
344.145430
 20
-483.143665
 30
0.000000
 40
6.250000
  1
RUHSTORF-ROTT
 50
0.000000
 41
0.899763
 51
0.000000
  7
TXT8
 72
     0
 11
344.145430
 21
-483.143665
 31
0.000000
100
AcDbText
 73
     0
  0
TEXT
  5
8DD
100
AcDbEntity
  8
L
 62
     3
100
AcDbText
 10
430.062530
 20
-386.750015
 30
0.000000
 40
12.500000
  1
INSTALLATION DRAWING
 50
0.000000
 41
0.841136
 51
0.000000
  7
TXT8
 72
     0
 11
430.062530
 21
-374.250015
 31
0.000000
100
AcDbText
 73
     3
  0
ENDBLK
  5
8DE
100
AcDbEntity
  8
0
100
AcDbBlockEnd
  0
BLOCK
  5
8DF
100
AcDbEntity
  8
L
100
AcDbBlockBegin
  2
B-88
 70
    66
 10
0.000000
 20
0.000000
 30
0.000000
  0
LINE
  5
8E0
100
AcDbEntity
  8
L
  6
CONTINUOUS
 62
     4
100
AcDbLine
 10
546.250020
 20
-473.749935
 11
546.250020
 21
-488.749935
  0
TEXT
  5
8E1
100
AcDbEntity
  8
L
 62
     6
100
AcDbText
 10
429.500050
 20
-482.749995
 30
0.000000
 40
6.250000
  1
gez.:
 50
0.000000
 41
1.189189
 51
0.000000
  7
TXT8
 72
     0
 11
429.500050
 21
-476.499995
 31
0.000000
100
AcDbText
 73
     3
  0
TEXT
  5
8E2
100
AcDbEntity
  8
L
 62
     6
100
AcDbText
 10
554.125045
 20
-482.749944
 30
0.000000
 40
6.249965
  1
gepr.:
 50
0.000000
 41
0.969971
 51
0.000000
  7
TXT8
 72
     0
 11
554.125045
 21
-476.499979
 31
0.000000
100
AcDbText
 73
     3
  0
TEXT
  5
8E3
100
AcDbEntity
  8
L
 62
     4
100
AcDbText
 10
429.668770
 20
-471.349975
 30
0.000000
 40
8.750000
  1
Blatt 5  von  12 Blättern
 50
0.000000
 41
0.886895
 51
0.000000
  7
TXT8
 72
     0
 11
429.668770
 21
-462.599975
 31
0.000000
100
AcDbText
 73
     3
  0
TEXT
  5
8E4
100
AcDbEntity
  8
L
 62
     4
100
AcDbText
 10
429.687520
 20
-458.749975
 30
0.000000
 40
6.250000
  1
SHEET     OF      SHEETS
 50
0.000000
 41
0.899873
 51
0.000000
  7
TXT8
 72
     0
 11
429.687520
 21
-452.499975
 31
0.000000
100
AcDbText
 73
     3
  0
TEXT
  5
8E5
100
AcDbEntity
  8
L
 62
     4
100
AcDbText
 10
543.139372
 20
-426.409845
 30
0.000000
 40
8.750000
  1
TOP VIEW
 50
0.000000
 41
0.783750
 51
0.000000
  7
TXT8
 72
     0
 11
543.139372
 21
-417.659845
 31
0.000000
100
AcDbText
 73
     3
  0
ENDBLK
  5
8E6
100
AcDbEntity
  8
0
100
AcDbBlockEnd
  0
BLOCK
  5
8E7
100
AcDbEntity
  8
0
100
AcDbBlockBegin
  2
Be2
 70
    66
 10
0.000000
 20
0.000000
 30
0.000000
  0
TEXT
  5
8E8
100
AcDbEntity
  8
0
 62
     3
100
AcDbText
 10
542.857231
 20
-445.747425
 30
0.000000
 40
12.500000
  1
Draufsicht
 50
0.000000
 41
0.876667
 51
0.000000
  7
TXT8
 72
     0
 11
542.857231
 21
-433.247425
 31
0.000000
100
AcDbText
 73
     3
  0
ENDBLK
  5
8E9
100
AcDbEntity
  8
0
100
AcDbBlockEnd
  0
BLOCK
  5
8EA
100
AcDbEntity
  8
0
100
AcDbBlockBegin
  2
Be3
 70
    66
 10
0.000000
 20
0.000000
 30
0.000000
  0
TEXT
  5
8EB
100
AcDbEntity
  8
0
 62
     2
100
AcDbText
 10
429.650019
 20
-439.429788
 30
0.000000
 40
14.999995
  1
1D50S/Z
 50
0.000000
 41
0.797406
 51
0.000000
  7
TXT8
 72
     0
 11
429.650019
 21
-424.429793
 31
0.000000
100
AcDbText
 73
     3
  0
ENDBLK
  5
8EC
100
AcDbEntity
  8
0
100
AcDbBlockEnd
  0
BLOCK
  5
8ED
100
AcDbEntity
  8
0
100
AcDbBlockBegin
  2
DatErst1
 70
    66
 10
0.000000
 20
0.000000
 30
0.000000
  0
TEXT
  5
8EE
100
AcDbEntity
  8
0
 62
     6
100
AcDbText
 10
457.850400
 20
-483.377975
 30
0.000000
 40
6.250000
  1
25.10.16
 50
0.000000
 41
1.178182
 51
0.000000
  7
TXT8
 72
     0
 11
457.850400
 21
-477.127975
 31
0.000000
100
AcDbText
 73
     3
  0
ENDBLK
  5
8EF
100
AcDbEntity
  8
0
100
AcDbBlockEnd
  0
BLOCK
  5
8F0
100
AcDbEntity
  8
0
100
AcDbBlockBegin
  2
DatErst2
 70
    66
 10
0.000000
 20
0.000000
 30
0.000000
  0
TEXT
  5
8F1
100
AcDbEntity
  8
0
 62
     6
100
AcDbText
 10
585.870470
 20
-483.377975
 30
0.000000
 40
6.250000
  1
25.10.16
 50
0.000000
 41
1.178182
 51
0.000000
  7
TXT8
 72
     0
 11
585.870470
 21
-477.127975
 31
0.000000
100
AcDbText
 73
     3
  0
ENDBLK
  5
8F2
100
AcDbEntity
  8
0
100
AcDbBlockEnd
  0
BLOCK
  5
8F3
100
AcDbEntity
  8
0
100
AcDbBlockBegin
  2
Erst2
 70
    66
 10
0.000000
 20
0.000000
 30
0.000000
  0
TEXT
  5
8F4
100
AcDbEntity
  8
0
 62
     6
100
AcDbText
 10
634.030750
 20
-483.377975
 30
0.000000
 40
6.250000
  1
Gerh
 50
0.000000
 41
0.850136
 51
0.000000
  7
TXT8
 72
     0
 11
634.030750
 21
-477.127975
 31
0.000000
100
AcDbText
 73
     3
  0
ENDBLK
  5
8F5
100
AcDbEntity
  8
0
100
AcDbBlockEnd
  0
BLOCK
  5
8F6
100
AcDbEntity
  8
0
100
AcDbBlockBegin
  2
Erst1
 70
    66
 10
0.000000
 20
0.000000
 30
0.000000
  0
TEXT
  5
8F7
100
AcDbEntity
  8
0
 62
     6
100
AcDbText
 10
511.098020
 20
-483.925975
 30
0.000000
 40
6.250000
  1
Gerh
 50
0.000000
 41
0.850136
 51
0.000000
  7
TXT8
 72
     0
 11
511.098020
 21
-477.675975
 31
0.000000
100
AcDbText
 73
     3
  0
ENDBLK
  5
8F8
100
AcDbEntity
  8
0
100
AcDbBlockEnd
  0
ENDSEC
  0
SECTION
  2
ENTITIES
  0
INSERT
  5
8F9
100
AcDbEntity
  8
L
100
AcDbBlockReference
  2
B
 10
0.000000
 20
0.000000
 30
0.000000
 41
1.000000
 42
1.000000
 43
1.000000
 50
0.000000
  0
INSERT
  5
8FA
100
AcDbEntity
  8
L
100
AcDbBlockReference
  2
B-2
 10
0.000000
 20
0.000000
 30
0.000000
 41
1.000000
 42
1.000000
 43
1.000000
 50
0.000000
  0
INSERT
  5
8FB
100
AcDbEntity
  8
L
100
AcDbBlockReference
  2
B-3
 10
0.000000
 20
0.000000
 30
0.000000
 41
1.000000
 42
1.000000
 43
1.000000
 50
0.000000
  0
INSERT
  5
8FC
100
AcDbEntity
  8
L
100
AcDbBlockReference
  2
B-4
 10
0.000000
 20
0.000000
 30
0.000000
 41
1.000000
 42
1.000000
 43
1.000000
 50
0.000000
  0
INSERT
  5
8FD
100
AcDbEntity
  8
L
100
AcDbBlockReference
  2
B-5
 10
0.000000
 20
0.000000
 30
0.000000
 41
1.000000
 42
1.000000
 43
1.000000
 50
0.000000
  0
INSERT
  5
8FE
100
AcDbEntity
  8
L
100
AcDbBlockReference
  2
B-6
 10
0.000000
 20
0.000000
 30
0.000000
 41
1.000000
 42
1.000000
 43
1.000000
 50
0.000000
  0
INSERT
  5
8FF
100
AcDbEntity
  8
L
100
AcDbBlockReference
  2
B-7
 10
0.000000
 20
0.000000
 30
0.000000
 41
1.000000
 42
1.000000
 43
1.000000
 50
0.000000
  0
INSERT
  5
900
100
AcDbEntity
  8
L
100
AcDbBlockReference
  2
B-8
 10
0.000000
 20
0.000000
 30
0.000000
 41
1.000000
 42
1.000000
 43
1.000000
 50
0.000000
  0
INSERT
  5
901
100
AcDbEntity
  8
L
100
AcDbBlockReference
  2
B-9
 10
0.000000
 20
0.000000
 30
0.000000
 41
1.000000
 42
1.000000
 43
1.000000
 50
0.000000
  0
INSERT
  5
902
100
AcDbEntity
  8
L
100
AcDbBlockReference
  2
B-10
 10
0.000000
 20
0.000000
 30
0.000000
 41
1.000000
 42
1.000000
 43
1.000000
 50
0.000000
  0
INSERT
  5
903
100
AcDbEntity
  8
L
100
AcDbBlockReference
  2
B-11
 10
0.000000
 20
0.000000
 30
0.000000
 41
1.000000
 42
1.000000
 43
1.000000
 50
0.000000
  0
INSERT
  5
904
100
AcDbEntity
  8
L
100
AcDbBlockReference
  2
B-12
 10
0.000000
 20
0.000000
 30
0.000000
 41
1.000000
 42
1.000000
 43
1.000000
 50
0.000000
  0
INSERT
  5
905
100
AcDbEntity
  8
L
100
AcDbBlockReference
  2
B-13
 10
0.000000
 20
0.000000
 30
0.000000
 41
1.000000
 42
1.000000
 43
1.000000
 50
0.000000
  0
INSERT
  5
906
100
AcDbEntity
  8
L
100
AcDbBlockReference
  2
B-14
 10
0.000000
 20
0.000000
 30
0.000000
 41
1.000000
 42
1.000000
 43
1.000000
 50
0.000000
  0
INSERT
  5
907
100
AcDbEntity
  8
L
100
AcDbBlockReference
  2
B-15
 10
0.000000
 20
0.000000
 30
0.000000
 41
1.000000
 42
1.000000
 43
1.000000
 50
0.000000
  0
INSERT
  5
908
100
AcDbEntity
  8
L
100
AcDbBlockReference
  2
B-16
 10
0.000000
 20
0.000000
 30
0.000000
 41
1.000000
 42
1.000000
 43
1.000000
 50
0.000000
  0
INSERT
  5
909
100
AcDbEntity
  8
L
100
AcDbBlockReference
  2
B-17
 10
0.000000
 20
0.000000
 30
0.000000
 41
1.000000
 42
1.000000
 43
1.000000
 50
0.000000
  0
INSERT
  5
90A
100
AcDbEntity
  8
L
100
AcDbBlockReference
  2
B-18
 10
0.000000
 20
0.000000
 30
0.000000
 41
1.000000
 42
1.000000
 43
1.000000
 50
0.000000
  0
INSERT
  5
90B
100
AcDbEntity
  8
L
100
AcDbBlockReference
  2
B-19
 10
0.000000
 20
0.000000
 30
0.000000
 41
1.000000
 42
1.000000
 43
1.000000
 50
0.000000
  0
INSERT
  5
90C
100
AcDbEntity
  8
L
100
AcDbBlockReference
  2
B-20
 10
0.000000
 20
0.000000
 30
0.000000
 41
1.000000
 42
1.000000
 43
1.000000
 50
0.000000
  0
INSERT
  5
90D
100
AcDbEntity
  8
L
100
AcDbBlockReference
  2
B-21
 10
0.000000
 20
0.000000
 30
0.000000
 41
1.000000
 42
1.000000
 43
1.000000
 50
0.000000
  0
INSERT
  5
90E
100
AcDbEntity
  8
L
100
AcDbBlockReference
  2
B-22
 10
0.000000
 20
0.000000
 30
0.000000
 41
1.000000
 42
1.000000
 43
1.000000
 50
0.000000
  0
INSERT
  5
90F
100
AcDbEntity
  8
L
100
AcDbBlockReference
  2
B-23
 10
0.000000
 20
0.000000
 30
0.000000
 41
1.000000
 42
1.000000
 43
1.000000
 50
0.000000
  0
INSERT
  5
910
100
AcDbEntity
  8
L
100
AcDbBlockReference
  2
B-24
 10
0.000000
 20
0.000000
 30
0.000000
 41
1.000000
 42
1.000000
 43
1.000000
 50
0.000000
  0
INSERT
  5
911
100
AcDbEntity
  8
L
100
AcDbBlockReference
  2
B-25
 10
0.000000
 20
0.000000
 30
0.000000
 41
1.000000
 42
1.000000
 43
1.000000
 50
0.000000
  0
INSERT
  5
912
100
AcDbEntity
  8
L
100
AcDbBlockReference
  2
B-26
 10
0.000000
 20
0.000000
 30
0.000000
 41
1.000000
 42
1.000000
 43
1.000000
 50
0.000000
  0
INSERT
  5
913
100
AcDbEntity
  8
L
100
AcDbBlockReference
  2
B-27
 10
0.000000
 20
0.000000
 30
0.000000
 41
1.000000
 42
1.000000
 43
1.000000
 50
0.000000
  0
INSERT
  5
914
100
AcDbEntity
  8
L
100
AcDbBlockReference
  2
B-28
 10
0.000000
 20
0.000000
 30
0.000000
 41
1.000000
 42
1.000000
 43
1.000000
 50
0.000000
  0
INSERT
  5
915
100
AcDbEntity
  8
L
100
AcDbBlockReference
  2
B-29
 10
0.000000
 20
0.000000
 30
0.000000
 41
1.000000
 42
1.000000
 43
1.000000
 50
0.000000
  0
INSERT
  5
916
100
AcDbEntity
  8
L
100
AcDbBlockReference
  2
B-30
 10
0.000000
 20
0.000000
 30
0.000000
 41
1.000000
 42
1.000000
 43
1.000000
 50
0.000000
  0
INSERT
  5
917
100
AcDbEntity
  8
L
100
AcDbBlockReference
  2
B-31
 10
0.000000
 20
0.000000
 30
0.000000
 41
1.000000
 42
1.000000
 43
1.000000
 50
0.000000
  0
INSERT
  5
918
100
AcDbEntity
  8
L
100
AcDbBlockReference
  2
B-32
 10
0.000000
 20
0.000000
 30
0.000000
 41
1.000000
 42
1.000000
 43
1.000000
 50
0.000000
  0
INSERT
  5
919
100
AcDbEntity
  8
L
100
AcDbBlockReference
  2
B-33
 10
0.000000
 20
0.000000
 30
0.000000
 41
1.000000
 42
1.000000
 43
1.000000
 50
0.000000
  0
INSERT
  5
91A
100
AcDbEntity
  8
L
100
AcDbBlockReference
  2
B-34
 10
0.000000
 20
0.000000
 30
0.000000
 41
1.000000
 42
1.000000
 43
1.000000
 50
0.000000
  0
INSERT
  5
91B
100
AcDbEntity
  8
L
100
AcDbBlockReference
  2
B-35
 10
0.000000
 20
0.000000
 30
0.000000
 41
1.000000
 42
1.000000
 43
1.000000
 50
0.000000
  0
INSERT
  5
91C
100
AcDbEntity
  8
L
100
AcDbBlockReference
  2
B-36
 10
0.000000
 20
0.000000
 30
0.000000
 41
1.000000
 42
1.000000
 43
1.000000
 50
0.000000
  0
INSERT
  5
91D
100
AcDbEntity
  8
L
100
AcDbBlockReference
  2
B-37
 10
0.000000
 20
0.000000
 30
0.000000
 41
1.000000
 42
1.000000
 43
1.000000
 50
0.000000
  0
INSERT
  5
91E
100
AcDbEntity
  8
L
100
AcDbBlockReference
  2
B-38
 10
0.000000
 20
0.000000
 30
0.000000
 41
1.000000
 42
1.000000
 43
1.000000
 50
0.000000
  0
INSERT
  5
91F
100
AcDbEntity
  8
L
100
AcDbBlockReference
  2
B-39
 10
0.000000
 20
0.000000
 30
0.000000
 41
1.000000
 42
1.000000
 43
1.000000
 50
0.000000
  0
INSERT
  5
920
100
AcDbEntity
  8
L
100
AcDbBlockReference
  2
B-40
 10
0.000000
 20
0.000000
 30
0.000000
 41
1.000000
 42
1.000000
 43
1.000000
 50
0.000000
  0
INSERT
  5
921
100
AcDbEntity
  8
L
100
AcDbBlockReference
  2
B-41
 10
0.000000
 20
0.000000
 30
0.000000
 41
1.000000
 42
1.000000
 43
1.000000
 50
0.000000
  0
INSERT
  5
922
100
AcDbEntity
  8
L
100
AcDbBlockReference
  2
B-42
 10
0.000000
 20
0.000000
 30
0.000000
 41
1.000000
 42
1.000000
 43
1.000000
 50
0.000000
  0
INSERT
  5
923
100
AcDbEntity
  8
L
100
AcDbBlockReference
  2
B-43
 10
0.000000
 20
0.000000
 30
0.000000
 41
1.000000
 42
1.000000
 43
1.000000
 50
0.000000
  0
INSERT
  5
924
100
AcDbEntity
  8
L
100
AcDbBlockReference
  2
B-44
 10
0.000000
 20
0.000000
 30
0.000000
 41
1.000000
 42
1.000000
 43
1.000000
 50
0.000000
  0
INSERT
  5
925
100
AcDbEntity
  8
L
100
AcDbBlockReference
  2
B-45
 10
0.000000
 20
0.000000
 30
0.000000
 41
1.000000
 42
1.000000
 43
1.000000
 50
0.000000
  0
INSERT
  5
926
100
AcDbEntity
  8
L
100
AcDbBlockReference
  2
B-46
 10
0.000000
 20
0.000000
 30
0.000000
 41
1.000000
 42
1.000000
 43
1.000000
 50
0.000000
  0
INSERT
  5
927
100
AcDbEntity
  8
L
100
AcDbBlockReference
  2
B-47
 10
0.000000
 20
0.000000
 30
0.000000
 41
1.000000
 42
1.000000
 43
1.000000
 50
0.000000
  0
INSERT
  5
928
100
AcDbEntity
  8
L
100
AcDbBlockReference
  2
B-48
 10
0.000000
 20
0.000000
 30
0.000000
 41
1.000000
 42
1.000000
 43
1.000000
 50
0.000000
  0
INSERT
  5
929
100
AcDbEntity
  8
L
100
AcDbBlockReference
  2
B-49
 10
0.000000
 20
0.000000
 30
0.000000
 41
1.000000
 42
1.000000
 43
1.000000
 50
0.000000
  0
INSERT
  5
92A
100
AcDbEntity
  8
L
100
AcDbBlockReference
  2
B-50
 10
0.000000
 20
0.000000
 30
0.000000
 41
1.000000
 42
1.000000
 43
1.000000
 50
0.000000
  0
DIMENSION
  5
92B
100
AcDbEntity
  8
MASSE
 62
     3
100
AcDbDimension
  2
*D0
  3
CAD400-DIM0
 10
-225.499982
 20
-224.999998
 30
0.000000
 11
-112.749990
 21
-208.550000
 31
0.000000
 70
   128
100
AcDbAlignedDimension
 13
-225.499985
 23
-72.500065
 33
0.000000
 14
0.000000
 24
-225.000000
 34
0.000000
 50
0.000000
100
AcDbRotatedDimension
  0
DIMENSION
  5
92C
100
AcDbEntity
  8
MASSE
 62
     3
100
AcDbDimension
  2
*D1
  3
CAD400-DIM1
 10
0.000003
 20
-224.999998
 30
0.000000
 11
118.650000
 21
-208.550000
 31
0.000000
 70
   128
100
AcDbAlignedDimension
 13
0.000000
 23
-225.000000
 33
0.000000
 14
237.300005
 24
-97.999970
 34
0.000000
 50
0.000000
100
AcDbRotatedDimension
  0
DIMENSION
  5
92D
100
AcDbEntity
  8
MASSE
 62
     3
100
AcDbDimension
  2
*D2
  3
CAD400-DIM2
 10
325.000002
 20
-143.499968
 30
0.000000
 11
308.550000
 21
-71.749985
 31
0.000000
 70
   128
100
AcDbAlignedDimension
 13
128.300005
 23
-143.499970
 33
0.000000
 14
286.984065
 24
0.000000
 34
0.000000
 50
90.000000
100
AcDbRotatedDimension
  0
DIMENSION
  5
92E
100
AcDbEntity
  8
MASSE
 62
     3
100
AcDbDimension
  2
*D3
  3
CAD400-DIM2
 10
325.000002
 20
0.000003
 30
0.000000
 11
308.550000
 21
99.000000
 31
0.000000
 70
   128
100
AcDbAlignedDimension
 13
286.984065
 23
0.000000
 33
0.000000
 14
186.999990
 24
198.000000
 34
0.000000
 50
90.000000
100
AcDbRotatedDimension
  0
INSERT
  5
92F
100
AcDbEntity
  8
L
100
AcDbBlockReference
  2
B-52
 10
0.000000
 20
0.000000
 30
0.000000
 41
1.000000
 42
1.000000
 43
1.000000
 50
0.000000
  0
INSERT
  5
930
100
AcDbEntity
  8
L
100
AcDbBlockReference
  2
B-53
 10
0.000000
 20
0.000000
 30
0.000000
 41
1.000000
 42
1.000000
 43
1.000000
 50
0.000000
  0
INSERT
  5
931
100
AcDbEntity
  8
L
100
AcDbBlockReference
  2
rahmen
 10
0.000000
 20
0.000000
 30
0.000000
 41
1.000000
 42
1.000000
 43
1.000000
 50
0.000000
  0
INSERT
  5
932
100
AcDbEntity
  8
0
100
AcDbBlockReference
  2
ZNr
 10
0.000000
 20
0.000000
 30
0.000000
 41
1.000000
 42
1.000000
 43
1.000000
 50
0.000000
  0
INSERT
  5
933
100
AcDbEntity
  8
L
100
AcDbBlockReference
  2
datum1
 10
0.000000
 20
0.000000
 30
0.000000
 41
1.000000
 42
1.000000
 43
1.000000
 50
0.000000
  0
INSERT
  5
934
100
AcDbEntity
  8
L
100
AcDbBlockReference
  2
datum2
 10
0.000000
 20
0.000000
 30
0.000000
 41
1.000000
 42
1.000000
 43
1.000000
 50
0.000000
  0
INSERT
  5
935
100
AcDbEntity
  8
L
100
AcDbBlockReference
  2
datum3
 10
0.000000
 20
0.000000
 30
0.000000
 41
1.000000
 42
1.000000
 43
1.000000
 50
0.000000
  0
INSERT
  5
936
100
AcDbEntity
  8
L
100
AcDbBlockReference
  2
datum4
 10
0.000000
 20
0.000000
 30
0.000000
 41
1.000000
 42
1.000000
 43
1.000000
 50
0.000000
  0
INSERT
  5
937
100
AcDbEntity
  8
L
100
AcDbBlockReference
  2
datum5
 10
0.000000
 20
0.000000
 30
0.000000
 41
1.000000
 42
1.000000
 43
1.000000
 50
0.000000
  0
INSERT
  5
938
100
AcDbEntity
  8
L
100
AcDbBlockReference
  2
datum6
 10
0.000000
 20
0.000000
 30
0.000000
 41
1.000000
 42
1.000000
 43
1.000000
 50
0.000000
  0
INSERT
  5
939
100
AcDbEntity
  8
L
100
AcDbBlockReference
  2
datum7
 10
0.000000
 20
0.000000
 30
0.000000
 41
1.000000
 42
1.000000
 43
1.000000
 50
0.000000
  0
INSERT
  5
93A
100
AcDbEntity
  8
L
100
AcDbBlockReference
  2
index7
 10
0.000000
 20
0.000000
 30
0.000000
 41
1.000000
 42
1.000000
 43
1.000000
 50
0.000000
  0
INSERT
  5
93B
100
AcDbEntity
  8
L
100
AcDbBlockReference
  2
index1
 10
0.000000
 20
0.000000
 30
0.000000
 41
1.000000
 42
1.000000
 43
1.000000
 50
0.000000
  0
INSERT
  5
93C
100
AcDbEntity
  8
L
100
AcDbBlockReference
  2
name3
 10
0.000000
 20
0.000000
 30
0.000000
 41
1.000000
 42
1.000000
 43
1.000000
 50
0.000000
  0
INSERT
  5
93D
100
AcDbEntity
  8
L
100
AcDbBlockReference
  2
name5
 10
0.000000
 20
0.000000
 30
0.000000
 41
1.000000
 42
1.000000
 43
1.000000
 50
0.000000
  0
INSERT
  5
93E
100
AcDbEntity
  8
L
100
AcDbBlockReference
  2
name1
 10
0.000000
 20
0.000000
 30
0.000000
 41
1.000000
 42
1.000000
 43
1.000000
 50
0.000000
  0
INSERT
  5
93F
100
AcDbEntity
  8
L
100
AcDbBlockReference
  2
name7
 10
0.000000
 20
0.000000
 30
0.000000
 41
1.000000
 42
1.000000
 43
1.000000
 50
0.000000
  0
INSERT
  5
940
100
AcDbEntity
  8
L
100
AcDbBlockReference
  2
nummer1
 10
0.000000
 20
0.000000
 30
0.000000
 41
1.000000
 42
1.000000
 43
1.000000
 50
0.000000
  0
INSERT
  5
941
100
AcDbEntity
  8
L
100
AcDbBlockReference
  2
nummer7
 10
0.000000
 20
0.000000
 30
0.000000
 41
1.000000
 42
1.000000
 43
1.000000
 50
0.000000
  0
INSERT
  5
942
100
AcDbEntity
  8
L
100
AcDbBlockReference
  2
name2
 10
0.000000
 20
0.000000
 30
0.000000
 41
1.000000
 42
1.000000
 43
1.000000
 50
0.000000
  0
INSERT
  5
943
100
AcDbEntity
  8
L
100
AcDbBlockReference
  2
name4
 10
0.000000
 20
0.000000
 30
0.000000
 41
1.000000
 42
1.000000
 43
1.000000
 50
0.000000
  0
INSERT
  5
944
100
AcDbEntity
  8
L
100
AcDbBlockReference
  2
name6
 10
0.000000
 20
0.000000
 30
0.000000
 41
1.000000
 42
1.000000
 43
1.000000
 50
0.000000
  0
INSERT
  5
945
100
AcDbEntity
  8
L
100
AcDbBlockReference
  2
nummer2
 10
0.000000
 20
0.000000
 30
0.000000
 41
1.000000
 42
1.000000
 43
1.000000
 50
0.000000
  0
INSERT
  5
946
100
AcDbEntity
  8
L
100
AcDbBlockReference
  2
nummer3
 10
0.000000
 20
0.000000
 30
0.000000
 41
1.000000
 42
1.000000
 43
1.000000
 50
0.000000
  0
INSERT
  5
947
100
AcDbEntity
  8
L
100
AcDbBlockReference
  2
nummer4
 10
0.000000
 20
0.000000
 30
0.000000
 41
1.000000
 42
1.000000
 43
1.000000
 50
0.000000
  0
INSERT
  5
948
100
AcDbEntity
  8
L
100
AcDbBlockReference
  2
nummer5
 10
0.000000
 20
0.000000
 30
0.000000
 41
1.000000
 42
1.000000
 43
1.000000
 50
0.000000
  0
INSERT
  5
949
100
AcDbEntity
  8
L
100
AcDbBlockReference
  2
nummer6
 10
0.000000
 20
0.000000
 30
0.000000
 41
1.000000
 42
1.000000
 43
1.000000
 50
0.000000
  0
INSERT
  5
94A
100
AcDbEntity
  8
L
100
AcDbBlockReference
  2
index2
 10
0.000000
 20
0.000000
 30
0.000000
 41
1.000000
 42
1.000000
 43
1.000000
 50
0.000000
  0
INSERT
  5
94B
100
AcDbEntity
  8
L
100
AcDbBlockReference
  2
index3
 10
0.000000
 20
0.000000
 30
0.000000
 41
1.000000
 42
1.000000
 43
1.000000
 50
0.000000
  0
INSERT
  5
94C
100
AcDbEntity
  8
L
100
AcDbBlockReference
  2
index4
 10
0.000000
 20
0.000000
 30
0.000000
 41
1.000000
 42
1.000000
 43
1.000000
 50
0.000000
  0
INSERT
  5
94D
100
AcDbEntity
  8
L
100
AcDbBlockReference
  2
index5
 10
0.000000
 20
0.000000
 30
0.000000
 41
1.000000
 42
1.000000
 43
1.000000
 50
0.000000
  0
INSERT
  5
94E
100
AcDbEntity
  8
L
100
AcDbBlockReference
  2
index6
 10
0.000000
 20
0.000000
 30
0.000000
 41
1.000000
 42
1.000000
 43
1.000000
 50
0.000000
  0
INSERT
  5
94F
100
AcDbEntity
  8
L
100
AcDbBlockReference
  2
index8
 10
0.000000
 20
0.000000
 30
0.000000
 41
1.000000
 42
1.000000
 43
1.000000
 50
0.000000
  0
INSERT
  5
950
100
AcDbEntity
  8
L
100
AcDbBlockReference
  2
index9
 10
0.000000
 20
0.000000
 30
0.000000
 41
1.000000
 42
1.000000
 43
1.000000
 50
0.000000
  0
INSERT
  5
951
100
AcDbEntity
  8
L
100
AcDbBlockReference
  2
datum8
 10
0.000000
 20
0.000000
 30
0.000000
 41
1.000000
 42
1.000000
 43
1.000000
 50
0.000000
  0
INSERT
  5
952
100
AcDbEntity
  8
L
100
AcDbBlockReference
  2
name8
 10
0.000000
 20
0.000000
 30
0.000000
 41
1.000000
 42
1.000000
 43
1.000000
 50
0.000000
  0
INSERT
  5
953
100
AcDbEntity
  8
L
100
AcDbBlockReference
  2
name9
 10
0.000000
 20
0.000000
 30
0.000000
 41
1.000000
 42
1.000000
 43
1.000000
 50
0.000000
  0
INSERT
  5
954
100
AcDbEntity
  8
L
100
AcDbBlockReference
  2
nummer8
 10
0.000000
 20
0.000000
 30
0.000000
 41
1.000000
 42
1.000000
 43
1.000000
 50
0.000000
  0
INSERT
  5
955
100
AcDbEntity
  8
L
100
AcDbBlockReference
  2
nummer9
 10
0.000000
 20
0.000000
 30
0.000000
 41
1.000000
 42
1.000000
 43
1.000000
 50
0.000000
  0
INSERT
  5
956
100
AcDbEntity
  8
L
100
AcDbBlockReference
  2
aend1
 10
0.000000
 20
0.000000
 30
0.000000
 41
1.000000
 42
1.000000
 43
1.000000
 50
0.000000
  0
INSERT
  5
957
100
AcDbEntity
  8
L
100
AcDbBlockReference
  2
aend2
 10
0.000000
 20
0.000000
 30
0.000000
 41
1.000000
 42
1.000000
 43
1.000000
 50
0.000000
  0
INSERT
  5
958
100
AcDbEntity
  8
L
100
AcDbBlockReference
  2
aend3
 10
0.000000
 20
0.000000
 30
0.000000
 41
1.000000
 42
1.000000
 43
1.000000
 50
0.000000
  0
INSERT
  5
959
100
AcDbEntity
  8
L
100
AcDbBlockReference
  2
aend4
 10
0.000000
 20
0.000000
 30
0.000000
 41
1.000000
 42
1.000000
 43
1.000000
 50
0.000000
  0
INSERT
  5
95A
100
AcDbEntity
  8
L
100
AcDbBlockReference
  2
aend5
 10
0.000000
 20
0.000000
 30
0.000000
 41
1.000000
 42
1.000000
 43
1.000000
 50
0.000000
  0
INSERT
  5
95B
100
AcDbEntity
  8
L
100
AcDbBlockReference
  2
aend6
 10
0.000000
 20
0.000000
 30
0.000000
 41
1.000000
 42
1.000000
 43
1.000000
 50
0.000000
  0
INSERT
  5
95C
100
AcDbEntity
  8
L
100
AcDbBlockReference
  2
aend7
 10
0.000000
 20
0.000000
 30
0.000000
 41
1.000000
 42
1.000000
 43
1.000000
 50
0.000000
  0
INSERT
  5
95D
100
AcDbEntity
  8
L
100
AcDbBlockReference
  2
aend8
 10
0.000000
 20
0.000000
 30
0.000000
 41
1.000000
 42
1.000000
 43
1.000000
 50
0.000000
  0
INSERT
  5
95E
100
AcDbEntity
  8
L
100
AcDbBlockReference
  2
aend9
 10
0.000000
 20
0.000000
 30
0.000000
 41
1.000000
 42
1.000000
 43
1.000000
 50
0.000000
  0
INSERT
  5
95F
100
AcDbEntity
  8
L
100
AcDbBlockReference
  2
datum9
 10
0.000000
 20
0.000000
 30
0.000000
 41
1.000000
 42
1.000000
 43
1.000000
 50
0.000000
  0
INSERT
  5
960
100
AcDbEntity
  8
L
100
AcDbBlockReference
  2
sk
 10
0.000000
 20
0.000000
 30
0.000000
 41
1.000000
 42
1.000000
 43
1.000000
 50
0.000000
  0
INSERT
  5
961
100
AcDbEntity
  8
L
100
AcDbBlockReference
  2
B-86
 10
0.000000
 20
0.000000
 30
0.000000
 41
1.000000
 42
1.000000
 43
1.000000
 50
0.000000
  0
INSERT
  5
962
100
AcDbEntity
  8
0
100
AcDbBlockReference
  2
Be1
 10
0.000000
 20
0.000000
 30
0.000000
 41
1.000000
 42
1.000000
 43
1.000000
 50
0.000000
  0
INSERT
  5
963
100
AcDbEntity
  8
0
100
AcDbBlockReference
  2
B-87
 10
0.000000
 20
0.000000
 30
0.000000
 41
1.000000
 42
1.000000
 43
1.000000
 50
0.000000
  0
INSERT
  5
964
100
AcDbEntity
  8
L
100
AcDbBlockReference
  2
B-88
 10
0.000000
 20
0.000000
 30
0.000000
 41
1.000000
 42
1.000000
 43
1.000000
 50
0.000000
  0
INSERT
  5
965
100
AcDbEntity
  8
0
100
AcDbBlockReference
  2
Be2
 10
0.000000
 20
0.000000
 30
0.000000
 41
1.000000
 42
1.000000
 43
1.000000
 50
0.000000
  0
INSERT
  5
966
100
AcDbEntity
  8
0
100
AcDbBlockReference
  2
Be3
 10
0.000000
 20
0.000000
 30
0.000000
 41
1.000000
 42
1.000000
 43
1.000000
 50
0.000000
  0
INSERT
  5
967
100
AcDbEntity
  8
0
100
AcDbBlockReference
  2
DatErst1
 10
0.000000
 20
0.000000
 30
0.000000
 41
1.000000
 42
1.000000
 43
1.000000
 50
0.000000
  0
INSERT
  5
968
100
AcDbEntity
  8
0
100
AcDbBlockReference
  2
DatErst2
 10
0.000000
 20
0.000000
 30
0.000000
 41
1.000000
 42
1.000000
 43
1.000000
 50
0.000000
  0
INSERT
  5
969
100
AcDbEntity
  8
0
100
AcDbBlockReference
  2
Erst2
 10
0.000000
 20
0.000000
 30
0.000000
 41
1.000000
 42
1.000000
 43
1.000000
 50
0.000000
  0
INSERT
  5
96A
100
AcDbEntity
  8
0
100
AcDbBlockReference
  2
Erst1
 10
0.000000
 20
0.000000
 30
0.000000
 41
1.000000
 42
1.000000
 43
1.000000
 50
0.000000
  0
ENDSEC
  0
SECTION
  2
OBJECTS
  0
DICTIONARY
  5
C
330
0
100
AcDbDictionary
281
     1
  3
ACAD_COLOR
350
6B
  3
ACAD_GROUP
350
D
  3
ACAD_IMAGE_DICT
350
1E2
  3
ACAD_IMAGE_VARS
350
1E3
  3
ACAD_MATERIAL
350
6A
  3
ACAD_MLINESTYLE
350
17
  3
ACAD_PLOTSETTINGS
350
19
  3
ACAD_PLOTSTYLENAME
350
E
  3
ACAD_SCALELIST
350
10C
  3
ACAD_TABLESTYLE
350
7E
  3
ACAD_VISUALSTYLE
350
EF
  3
ACDB_RECOMPOSE_DATA
350
15D
  3
AcDbVariableDictionary
350
5E
  0
DICTIONARY
  5
13C
330
10
100
AcDbDictionary
280
     1
281
     1
  0
DICTIONARY
  5
211
330
210
100
AcDbDictionary
280
     1
281
     1
  0
DICTIONARY
  5
6B
102
{ACAD_REACTORS
330
C
102
}
330
C
100
AcDbDictionary
281
     1
  0
DICTIONARY
  5
D
102
{ACAD_REACTORS
330
C
102
}
330
C
100
AcDbDictionary
281
     1
  0
DICTIONARY
  5
1E2
102
{ACAD_REACTORS
330
C
102
}
330
C
100
AcDbDictionary
281
     1
  0
RASTERVARIABLES
  5
1E3
102
{ACAD_REACTORS
330
C
102
}
330
C
100
AcDbRasterVariables
 90
        0
 70
     1
 71
     1
 72
     1
  0
DICTIONARY
  5
6A
102
{ACAD_REACTORS
330
C
102
}
330
C
100
AcDbDictionary
281
     1
  3
ByBlock
350
ED
  3
ByLayer
350
EC
  3
Global
350
EE
  0
DICTIONARY
  5
12D
102
{ACAD_REACTORS
330
C
102
}
330
C
100
AcDbDictionary
281
     1
  3
Annotative
350
13B
  3
Standard
350
12E
  0
DICTIONARY
  5
17
102
{ACAD_REACTORS
330
C
102
}
330
C
100
AcDbDictionary
281
     1
  3
Standard
350
18
  0
DICTIONARY
  5
19
102
{ACAD_REACTORS
330
C
102
}
330
C
100
AcDbDictionary
281
     1
  0
ACDBDICTIONARYWDFLT
  5
E
102
{ACAD_REACTORS
330
C
102
}
330
C
100
AcDbDictionary
281
     1
  3
Normal
350
F
100
AcDbDictionaryWithDefault
340
F
  0
DICTIONARY
  5
10C
102
{ACAD_REACTORS
330
C
102
}
330
C
100
AcDbDictionary
281
     1
  3
A0
350
10D
  3
A1
350
1BE
  3
A2
350
1BF
  3
A3
350
1C0
  3
A4
350
1C1
  3
A5
350
1C2
  3
A6
350
1C3
  3
A7
350
1C4
  3
A8
350
1C5
  3
A9
350
1C6
  3
B0
350
1C7
  3
B1
350
1C8
  3
B2
350
1C9
  3
B3
350
1CA
  3
B4
350
1CB
  3
B5
350
1CC
  3
B6
350
1CD
  0
DICTIONARY
  5
7E
102
{ACAD_REACTORS
330
C
102
}
330
C
100
AcDbDictionary
281
     1
  3
Standard
350
7F
  0
DICTIONARY
  5
EF
102
{ACAD_REACTORS
330
C
102
}
330
C
100
AcDbDictionary
281
     1
  3
2dWireframe
350
F5
  3
3D Hidden
350
F7
  3
3dWireframe
350
F6
  3
Basic
350
F4
  3
Brighten
350
FB
  3
ColorChange
350
FF
  3
Conceptual
350
F8
  3
Dim
350
FA
  3
Facepattern
350
FE
  3
Flat
350
F0
  3
FlatWithEdges
350
F1
  3
Gouraud
350
F2
  3
GouraudWithEdges
350
F3
  3
Linepattern
350
FD
  3
Realistic
350
F9
  3
Thicken
350
FC
  0
XRECORD
  5
15D
102
{ACAD_REACTORS
330
C
102
}
330
C
100
AcDbXrecord
280
     1
 90
        1
330
7F
  0
DICTIONARY
  5
5E
102
{ACAD_REACTORS
330
C
102
}
330
C
100
AcDbDictionary
281
     1
  3
CANNOSCALE
350
146
  3
CMLEADERSTYLE
350
145
  3
CTABLESTYLE
350
84
  3
DIMASSOC
350
5F
  3
HIDETEXT
350
63
  3
LAYEREVAL
350
1AE
  3
LAYERNOTIFY
350
1AF
  0
MATERIAL
  5
ED
102
{ACAD_REACTORS
330
6A
102
}
330
6A
100
AcDbMaterial
  1
ByBlock
 94
       63
  0
MATERIAL
  5
EC
102
{ACAD_REACTORS
330
6A
102
}
330
6A
100
AcDbMaterial
  1
ByLayer
 94
       63
  0
MATERIAL
  5
EE
102
{ACAD_XDICTIONARY
360
173
102
}
102
{ACAD_REACTORS
330
6A
102
}
330
6A
100
AcDbMaterial
  1
Global
 43
0.0007999999797903
 43
0.0
 43
0.0
 43
0.0
 43
0.0
 43
0.0007999999797903
 43
0.0
 43
0.0
 43
0.0
 43
0.0
 43
1.0
 43
0.0
 43
0.0
 43
0.0
 43
0.0
 43
1.0
 49
0.0007999999797903
 49
0.0
 49
0.0
 49
0.0
 49
0.0
 49
0.0007999999797903
 49
0.0
 49
0.0
 49
0.0
 49
0.0
 49
1.0
 49
0.0
 49
0.0
 49
0.0
 49
0.0
 49
1.0
142
0.0007999999797903
142
0.0
142
0.0
142
0.0
142
0.0
142
0.0007999999797903
142
0.0
142
0.0
142
0.0
142
0.0
142
1.0
142
0.0
142
0.0
142
0.0
142
0.0
142
1.0
144
0.0007999999797903
144
0.0
144
0.0
144
0.0
144
0.0
144
0.0007999999797903
144
0.0
144
0.0
144
0.0
144
0.0
144
1.0
144
0.0
144
0.0
144
0.0
144
0.0
144
1.0
 94
       63
1001
ACAD
1070
    -1
1070
     3
1070
     0
1000

1071
        0
1070
     0
  0
MLINESTYLE
  5
18
102
{ACAD_REACTORS
330
17
102
}
330
17
100
AcDbMlineStyle
  2
STANDARD
 70
     0
  3

 62
   256
 51
90.0
 52
90.0
 71
     2
 49
0.5
 62
   256
  6
BYLAYER
 49
-0.5
 62
   256
  6
BYLAYER
  0
ACDBPLACEHOLDER
  5
F
102
{ACAD_REACTORS
330
E
102
}
330
E
  0
SCALE
  5
10D
102
{ACAD_REACTORS
330
10C
102
}
330
10C
100
AcDbScale
 70
     0
300
1:1
140
1.0
141
1.0
290
     1
  0
SCALE
  5
1BE
102
{ACAD_REACTORS
330
10C
102
}
330
10C
100
AcDbScale
 70
     0
300
1:2
140
1.0
141
2.0
290
     0
  0
SCALE
  5
1BF
102
{ACAD_REACTORS
330
10C
102
}
330
10C
100
AcDbScale
 70
     0
300
1:4
140
1.0
141
4.0
290
     0
  0
SCALE
  5
1C0
102
{ACAD_REACTORS
330
10C
102
}
330
10C
100
AcDbScale
 70
     0
300
1:5
140
1.0
141
5.0
290
     0
  0
SCALE
  5
1C1
102
{ACAD_REACTORS
330
10C
102
}
330
10C
100
AcDbScale
 70
     0
300
1:8
140
1.0
141
8.0
290
     0
  0
SCALE
  5
1C2
102
{ACAD_REACTORS
330
10C
102
}
330
10C
100
AcDbScale
 70
     0
300
1:10
140
1.0
141
10.0
290
     0
  0
SCALE
  5
1C3
102
{ACAD_REACTORS
330
10C
102
}
330
10C
100
AcDbScale
 70
     0
300
1:16
140
1.0
141
16.0
290
     0
  0
SCALE
  5
1C4
102
{ACAD_REACTORS
330
10C
102
}
330
10C
100
AcDbScale
 70
     0
300
1:20
140
1.0
141
20.0
290
     0
  0
SCALE
  5
1C5
102
{ACAD_REACTORS
330
10C
102
}
330
10C
100
AcDbScale
 70
     0
300
1:30
140
1.0
141
30.0
290
     0
  0
SCALE
  5
1C6
102
{ACAD_REACTORS
330
10C
102
}
330
10C
100
AcDbScale
 70
     0
300
1:40
140
1.0
141
40.0
290
     0
  0
SCALE
  5
1C7
102
{ACAD_REACTORS
330
10C
102
}
330
10C
100
AcDbScale
 70
     0
300
1:50
140
1.0
141
50.0
290
     0
  0
SCALE
  5
1C8
102
{ACAD_REACTORS
330
10C
102
}
330
10C
100
AcDbScale
 70
     0
300
1:100
140
1.0
141
100.0
290
     0
  0
SCALE
  5
1C9
102
{ACAD_REACTORS
330
10C
102
}
330
10C
100
AcDbScale
 70
     0
300
2:1
140
2.0
141
1.0
290
     0
  0
SCALE
  5
1CA
102
{ACAD_REACTORS
330
10C
102
}
330
10C
100
AcDbScale
 70
     0
300
4:1
140
4.0
141
1.0
290
     0
  0
SCALE
  5
1CB
102
{ACAD_REACTORS
330
10C
102
}
330
10C
100
AcDbScale
 70
     0
300
8:1
140
8.0
141
1.0
290
     0
  0
SCALE
  5
1CC
102
{ACAD_REACTORS
330
10C
102
}
330
10C
100
AcDbScale
 70
     0
300
10:1
140
10.0
141
1.0
290
     0
  0
SCALE
  5
1CD
102
{ACAD_REACTORS
330
10C
102
}
330
10C
100
AcDbScale
 70
     0
300
100:1
140
100.0
141
1.0
290
     0
  0
TABLESTYLE
  5
7F
102
{ACAD_XDICTIONARY
360
162
102
}
102
{ACAD_REACTORS
330
7E
102
}
330
7E
100
AcDbTableStyle
  3
Standard
 70
     0
 71
     0
 40
1.5
 41
1.5
280
     0
281
     0
  7
Standard
140
4.5
170
     2
 62
     0
 63
     7
283
     0
 90
      512
 91
        0
  1

274
    -2
284
     1
 64
     0
275
    -2
285
     1
 65
     0
276
    -2
286
     1
 66
     0
277
    -2
287
     1
 67
     0
278
    -2
288
     1
 68
     0
279
    -2
289
     1
 69
     0
  7
Standard
140
6.0
170
     5
 62
     0
 63
     7
283
     0
 90
      512
 91
        0
  1

274
    -2
284
     1
 64
     0
275
    -2
285
     1
 65
     0
276
    -2
286
     1
 66
     0
277
    -2
287
     1
 67
     0
278
    -2
288
     1
 68
     0
279
    -2
289
     1
 69
     0
  7
Standard
140
4.5
170
     5
 62
     0
 63
     7
283
     0
 90
      512
 91
        0
  1

274
    -2
284
     1
 64
     0
275
    -2
285
     1
 65
     0
276
    -2
286
     1
 66
     0
277
    -2
287
     1
 67
     0
278
    -2
288
     1
 68
     0
279
    -2
289
     1
 69
     0
  0
VISUALSTYLE
  5
F5
102
{ACAD_REACTORS
330
EF
102
}
330
EF
100
AcDbVisualStyle
  2
2dWireframe
 70
     4
 71
     0
 72
     2
 73
     1
 90
        0
 40
-0.6
 41
-30.0
 62
     5
 63
     7
421
 16777215
 74
     1
 91
        4
 64
     7
 65
   257
 75
     1
175
     1
 42
1.0
 92
        0
 66
   257
 43
1.0
 76
     1
 77
     6
 78
     2
 67
     7
 79
     5
170
     0
171
     0
290
     0
174
     0
 93
        1
 44
0.0
173
     0
291
     0
 45
0.0
  0
VISUALSTYLE
  5
F7
102
{ACAD_REACTORS
330
EF
102
}
330
EF
100
AcDbVisualStyle
  2
3D Hidden
 70
     6
 71
     1
 72
     2
 73
     2
 90
        0
 40
-0.6
 41
-30.0
 62
     5
 63
     7
421
 16777215
 74
     2
 91
        2
 64
     7
 65
   257
 75
     2
175
     1
 42
40.0
 92
        0
 66
   257
 43
1.0
 76
     1
 77
     6
 78
     2
 67
     7
 79
     3
170
     0
171
     0
290
     0
174
     0
 93
        1
 44
0.0
173
     0
291
     0
 45
0.0
  0
VISUALSTYLE
  5
F6
102
{ACAD_REACTORS
330
EF
102
}
330
EF
100
AcDbVisualStyle
  2
3dWireframe
 70
     5
 71
     0
 72
     2
 73
     1
 90
        0
 40
-0.6
 41
-30.0
 62
     5
 63
     7
421
 16777215
 74
     1
 91
        4
 64
     7
 65
   257
 75
     1
175
     1
 42
1.0
 92
        0
 66
   257
 43
1.0
 76
     1
 77
     6
 78
     2
 67
     7
 79
     5
170
     0
171
     0
290
     0
174
     0
 93
        1
 44
0.0
173
     0
291
     0
 45
0.0
  0
VISUALSTYLE
  5
F4
102
{ACAD_REACTORS
330
EF
102
}
330
EF
100
AcDbVisualStyle
  2
Basic
 70
     7
 71
     1
 72
     0
 73
     1
 90
        0
 40
-0.6
 41
-30.0
 62
     5
 63
     7
421
 16777215
 74
     0
 91
        4
 64
     7
 65
   257
 75
     1
175
     1
 42
1.0
 92
        8
 66
     7
 43
1.0
 76
     1
 77
     6
 78
     2
 67
     7
 79
     5
170
     0
171
     0
290
     0
174
     0
 93
        1
 44
0.0
173
     0
291
     1
 45
0.0
  0
VISUALSTYLE
  5
FB
102
{ACAD_REACTORS
330
EF
102
}
330
EF
100
AcDbVisualStyle
  2
Brighten
 70
    12
 71
     2
 72
     2
 73
     1
 90
        0
 40
-0.6
 41
-30.0
 62
     5
 63
     7
421
 16777215
 74
     1
 91
        4
 64
     7
 65
   257
 75
     1
175
     1
 42
1.0
 92
        8
 66
     7
 43
1.0
 76
     1
 77
     6
 78
     2
 67
     7
 79
     5
170
     0
171
     0
290
     0
174
     0
 93
        1
 44
50.0
173
     0
291
     1
 45
0.0
  0
VISUALSTYLE
  5
FF
102
{ACAD_REACTORS
330
EF
102
}
330
EF
100
AcDbVisualStyle
  2
ColorChange
 70
    16
 71
     2
 72
     2
 73
     3
 90
        0
 40
-0.6
 41
-30.0
 62
     5
 63
     8
421
  8421504
 74
     1
 91
        4
 64
     7
 65
   257
 75
     1
175
     1
 42
1.0
 92
        8
 66
     8
424
  8421504
 43
1.0
 76
     1
 77
     6
 78
     2
 67
     7
 79
     5
170
     0
171
     0
290
     0
174
     0
 93
        1
 44
0.0
173
     0
291
     1
 45
0.0
  0
VISUALSTYLE
  5
F8
102
{ACAD_REACTORS
330
EF
102
}
330
EF
100
AcDbVisualStyle
  2
Conceptual
 70
     9
 71
     3
 72
     2
 73
     1
 90
        0
 40
-0.6
 41
-30.0
 62
     5
 63
     7
421
 16777215
 74
     2
 91
        2
 64
     7
 65
   257
 75
     1
175
     1
 42
40.0
 92
        8
 66
     7
 43
1.0
 76
     1
 77
     6
 78
     2
 67
     7
 79
     3
170
     0
171
     0
290
     0
174
     0
 93
        1
 44
0.0
173
     0
291
     0
 45
0.0
  0
VISUALSTYLE
  5
FA
102
{ACAD_REACTORS
330
EF
102
}
330
EF
100
AcDbVisualStyle
  2
Dim
 70
    11
 71
     2
 72
     2
 73
     1
 90
        0
 40
-0.6
 41
-30.0
 62
     5
 63
     7
421
 16777215
 74
     1
 91
        4
 64
     7
 65
   257
 75
     1
175
     1
 42
1.0
 92
        8
 66
     7
 43
1.0
 76
     1
 77
     6
 78
     2
 67
     7
 79
     5
170
     0
171
     0
290
     0
174
     0
 93
        1
 44
-50.0
173
     0
291
     1
 45
0.0
  0
VISUALSTYLE
  5
FE
102
{ACAD_REACTORS
330
EF
102
}
330
EF
100
AcDbVisualStyle
  2
Facepattern
 70
    15
 71
     2
 72
     2
 73
     1
 90
        0
 40
-0.6
 41
-30.0
 62
     5
 63
     7
421
 16777215
 74
     1
 91
        4
 64
     7
 65
   257
 75
     1
175
     1
 42
1.0
 92
        8
 66
     7
 43
1.0
 76
     1
 77
     6
 78
     2
 67
     7
 79
     5
170
     0
171
     0
290
     0
174
     0
 93
        1
 44
0.0
173
     0
291
     1
 45
0.0
  0
VISUALSTYLE
  5
F0
102
{ACAD_REACTORS
330
EF
102
}
330
EF
100
AcDbVisualStyle
  2
Flat
 70
     0
 71
     2
 72
     1
 73
     1
 90
        2
 40
-0.6
 41
30.0
 62
     5
 63
     7
421
 16777215
 74
     0
 91
        4
 64
     7
 65
   257
 75
     1
175
     1
 42
1.0
 92
        8
 66
     7
 43
1.0
 76
     1
 77
     6
 78
     2
 67
     7
 79
     5
170
     0
171
     0
290
     0
174
     0
 93
        1
 44
0.0
173
     0
291
     1
 45
0.0
  0
VISUALSTYLE
  5
F1
102
{ACAD_REACTORS
330
EF
102
}
330
EF
100
AcDbVisualStyle
  2
FlatWithEdges
 70
     1
 71
     2
 72
     1
 73
     1
 90
        2
 40
-0.6
 41
30.0
 62
     5
 63
     7
421
 16777215
 74
     1
 91
        4
 64
     7
 65
   257
 75
     1
175
     1
 42
1.0
 92
        0
 66
   257
 43
1.0
 76
     1
 77
     6
 78
     2
 67
     7
 79
     5
170
     0
171
     0
290
     0
174
     0
 93
        1
 44
0.0
173
     0
291
     1
 45
0.0
  0
VISUALSTYLE
  5
F2
102
{ACAD_REACTORS
330
EF
102
}
330
EF
100
AcDbVisualStyle
  2
Gouraud
 70
     2
 71
     2
 72
     2
 73
     1
 90
        2
 40
-0.6
 41
30.0
 62
     5
 63
     7
421
 16777215
 74
     0
 91
        4
 64
     7
 65
   257
 75
     1
175
     1
 42
1.0
 92
        0
 66
     7
 43
1.0
 76
     1
 77
     6
 78
     2
 67
     7
 79
     5
170
     0
171
     0
290
     0
174
     0
 93
        1
 44
0.0
173
     0
291
     1
 45
0.0
  0
VISUALSTYLE
  5
F3
102
{ACAD_REACTORS
330
EF
102
}
330
EF
100
AcDbVisualStyle
  2
GouraudWithEdges
 70
     3
 71
     2
 72
     2
 73
     1
 90
        2
 40
-0.6
 41
30.0
 62
     5
 63
     7
421
 16777215
 74
     1
 91
        4
 64
     7
 65
   257
 75
     1
175
     1
 42
1.0
 92
        0
 66
   257
 43
1.0
 76
     1
 77
     6
 78
     2
 67
     7
 79
     5
170
     0
171
     0
290
     0
174
     0
 93
        1
 44
0.0
173
     0
291
     1
 45
0.0
  0
VISUALSTYLE
  5
FD
102
{ACAD_REACTORS
330
EF
102
}
330
EF
100
AcDbVisualStyle
  2
Linepattern
 70
    14
 71
     2
 72
     2
 73
     1
 90
        0
 40
-0.6
 41
-30.0
 62
     5
 63
     7
421
 16777215
 74
     1
 91
        4
 64
     7
 65
   257
 75
     7
175
     7
 42
1.0
 92
        8
 66
     7
 43
1.0
 76
     1
 77
     6
 78
     2
 67
     7
 79
     5
170
     0
171
     0
290
     0
174
     0
 93
        1
 44
0.0
173
     0
291
     1
 45
0.0
  0
VISUALSTYLE
  5
F9
102
{ACAD_REACTORS
330
EF
102
}
330
EF
100
AcDbVisualStyle
  2
Realistic
 70
     8
 71
     2
 72
     2
 73
     1
 90
        0
 40
-0.6
 41
-30.0
 62
     5
 63
     7
421
 16777215
 74
     1
 91
        0
 64
     7
 65
   257
 75
     1
175
     1
 42
1.0
 92
        8
 66
     8
424
  7895160
 43
1.0
 76
     1
 77
     6
 78
     2
 67
     7
 79
     5
170
     0
171
     0
290
     0
174
     0
 93
       13
 44
0.0
173
     0
291
     0
 45
0.0
  0
VISUALSTYLE
  5
FC
102
{ACAD_REACTORS
330
EF
102
}
330
EF
100
AcDbVisualStyle
  2
Thicken
 70
    13
 71
     2
 72
     2
 73
     1
 90
        0
 40
-0.6
 41
-30.0
 62
     5
 63
     7
421
 16777215
 74
     1
 91
        4
 64
     7
 65
   257
 75
     1
175
     1
 42
1.0
 92
       12
 66
     7
 43
1.0
 76
     1
 77
     6
 78
     2
 67
     7
 79
     5
170
     0
171
     0
290
     0
174
     0
 93
        1
 44
0.0
173
     0
291
     1
 45
0.0
  0
DICTIONARYVAR
  5
146
102
{ACAD_REACTORS
330
5E
102
}
330
5E
100
DictionaryVariables
280
     0
  1
1:1
  0
DICTIONARYVAR
  5
145
102
{ACAD_REACTORS
330
5E
102
}
330
5E
100
DictionaryVariables
280
     0
  1
STANDARD
  0
DICTIONARYVAR
  5
84
102
{ACAD_REACTORS
330
5E
102
}
330
5E
100
DictionaryVariables
280
     0
  1
STANDARD
  0
DICTIONARYVAR
  5
5F
102
{ACAD_REACTORS
330
5E
102
}
330
5E
100
DictionaryVariables
280
     0
  1
2
  0
DICTIONARYVAR
  5
63
102
{ACAD_REACTORS
330
5E
102
}
330
5E
100
DictionaryVariables
280
     0
  1
1
  0
DICTIONARYVAR
  5
1AE
102
{ACAD_REACTORS
330
5E
102
}
330
5E
100
DictionaryVariables
280
     0
  1
0
  0
DICTIONARYVAR
  5
1AF
102
{ACAD_REACTORS
330
5E
102
}
330
5E
100
DictionaryVariables
280
     0
  1
0
  0
DICTIONARY
  5
173
330
EE
100
AcDbDictionary
280
     1
281
     1
  3
BUMPTILE
360
175
  3
DIFFUSETILE
360
174
  3
OPACITYTILE
360
176
  3
REFLECTIONTILE
360
177
  0
DICTIONARY
  5
162
330
7F
100
AcDbDictionary
280
     1
281
     1
  3
ACAD_ROUNDTRIP_2008_TABLESTYLE_CELLSTYLEMAP
360
1E7
  0
XRECORD
  5
175
102
{ACAD_REACTORS
330
173
102
}
330
173
100
AcDbXrecord
280
     1
270
     1
271
     1
  0
XRECORD
  5
174
102
{ACAD_REACTORS
330
173
102
}
330
173
100
AcDbXrecord
280
     1
270
     1
271
     1
  0
XRECORD
  5
176
102
{ACAD_REACTORS
330
173
102
}
330
173
100
AcDbXrecord
280
     1
270
     1
271
     1
  0
XRECORD
  5
177
102
{ACAD_REACTORS
330
173
102
}
330
173
100
AcDbXrecord
280
     1
270
     1
271
     1
  0
CELLSTYLEMAP
  5
1E7
102
{ACAD_REACTORS
330
162
102
}
330
162
100
AcDbCellStyleMap
 90
        3
300
CELLSTYLE
  1
TABLEFORMAT_BEGIN
 90
        5
170
     1
 91
        0
 92
    32768
 62
   257
 93
        1
300
CONTENTFORMAT
  1
CONTENTFORMAT_BEGIN
 90
        0
 91
        0
 92
      512
 93
        0
300

 40
0.0
140
1.0
 94
        5
 62
     0
340
11
144
6.0
309
CONTENTFORMAT_END
171
     1
301
MARGIN
  1
CELLMARGIN_BEGIN
 40
1.5
 40
1.5
 40
1.5
 40
1.5
 40
4.5
 40
4.5
309
CELLMARGIN_END
 94
        6
 95
        1
302
GRIDFORMAT
  1
GRIDFORMAT_BEGIN
 90
        0
 91
        1
 62
     0
 92
       -2
340
204
 93
        0
 40
1.125
309
GRIDFORMAT_END
 95
        2
302
GRIDFORMAT
  1
GRIDFORMAT_BEGIN
 90
        0
 91
        1
 62
     0
 92
       -2
340
204
 93
        0
 40
1.125
309
GRIDFORMAT_END
 95
        4
302
GRIDFORMAT
  1
GRIDFORMAT_BEGIN
 90
        0
 91
        1
 62
     0
 92
       -2
340
204
 93
        0
 40
1.125
309
GRIDFORMAT_END
 95
        8
302
GRIDFORMAT
  1
GRIDFORMAT_BEGIN
 90
        0
 91
        1
 62
     0
 92
       -2
340
204
 93
        0
 40
1.125
309
GRIDFORMAT_END
 95
       16
302
GRIDFORMAT
  1
GRIDFORMAT_BEGIN
 90
        0
 91
        1
 62
     0
 92
       -2
340
204
 93
        0
 40
1.125
309
GRIDFORMAT_END
 95
       32
302
GRIDFORMAT
  1
GRIDFORMAT_BEGIN
 90
        0
 91
        1
 62
     0
 92
       -2
340
204
 93
        0
 40
1.125
309
GRIDFORMAT_END
309
TABLEFORMAT_END
  1
CELLSTYLE_BEGIN
 90
        1
 91
        1
300
_TITLE
309
CELLSTYLE_END
300
CELLSTYLE
  1
TABLEFORMAT_BEGIN
 90
        5
170
     1
 91
        0
 92
        0
 62
   257
 93
        1
300
CONTENTFORMAT
  1
CONTENTFORMAT_BEGIN
 90
        0
 91
        0
 92
      512
 93
        0
300

 40
0.0
140
1.0
 94
        5
 62
     0
340
11
144
4.5
309
CONTENTFORMAT_END
171
     1
301
MARGIN
  1
CELLMARGIN_BEGIN
 40
1.5
 40
1.5
 40
1.5
 40
1.5
 40
4.5
 40
4.5
309
CELLMARGIN_END
 94
        6
 95
        1
302
GRIDFORMAT
  1
GRIDFORMAT_BEGIN
 90
        0
 91
        1
 62
     0
 92
       -2
340
204
 93
        0
 40
1.125
309
GRIDFORMAT_END
 95
        2
302
GRIDFORMAT
  1
GRIDFORMAT_BEGIN
 90
        0
 91
        1
 62
     0
 92
       -2
340
204
 93
        0
 40
1.125
309
GRIDFORMAT_END
 95
        4
302
GRIDFORMAT
  1
GRIDFORMAT_BEGIN
 90
        0
 91
        1
 62
     0
 92
       -2
340
204
 93
        0
 40
1.125
309
GRIDFORMAT_END
 95
        8
302
GRIDFORMAT
  1
GRIDFORMAT_BEGIN
 90
        0
 91
        1
 62
     0
 92
       -2
340
204
 93
        0
 40
1.125
309
GRIDFORMAT_END
 95
       16
302
GRIDFORMAT
  1
GRIDFORMAT_BEGIN
 90
        0
 91
        1
 62
     0
 92
       -2
340
204
 93
        0
 40
1.125
309
GRIDFORMAT_END
 95
       32
302
GRIDFORMAT
  1
GRIDFORMAT_BEGIN
 90
        0
 91
        1
 62
     0
 92
       -2
340
204
 93
        0
 40
1.125
309
GRIDFORMAT_END
309
TABLEFORMAT_END
  1
CELLSTYLE_BEGIN
 90
        2
 91
        1
300
_HEADER
309
CELLSTYLE_END
300
CELLSTYLE
  1
TABLEFORMAT_BEGIN
 90
        5
170
     1
 91
        0
 92
        0
 62
   257
 93
        1
300
CONTENTFORMAT
  1
CONTENTFORMAT_BEGIN
 90
        0
 91
        0
 92
      512
 93
        0
300

 40
0.0
140
1.0
 94
        2
 62
     0
340
11
144
4.5
309
CONTENTFORMAT_END
171
     1
301
MARGIN
  1
CELLMARGIN_BEGIN
 40
1.5
 40
1.5
 40
1.5
 40
1.5
 40
4.5
 40
4.5
309
CELLMARGIN_END
 94
        6
 95
        1
302
GRIDFORMAT
  1
GRIDFORMAT_BEGIN
 90
        0
 91
        1
 62
     0
 92
       -2
340
204
 93
        0
 40
1.125
309
GRIDFORMAT_END
 95
        2
302
GRIDFORMAT
  1
GRIDFORMAT_BEGIN
 90
        0
 91
        1
 62
     0
 92
       -2
340
204
 93
        0
 40
1.125
309
GRIDFORMAT_END
 95
        4
302
GRIDFORMAT
  1
GRIDFORMAT_BEGIN
 90
        0
 91
        1
 62
     0
 92
       -2
340
204
 93
        0
 40
1.125
309
GRIDFORMAT_END
 95
        8
302
GRIDFORMAT
  1
GRIDFORMAT_BEGIN
 90
        0
 91
        1
 62
     0
 92
       -2
340
204
 93
        0
 40
1.125
309
GRIDFORMAT_END
 95
       16
302
GRIDFORMAT
  1
GRIDFORMAT_BEGIN
 90
        0
 91
        1
 62
     0
 92
       -2
340
204
 93
        0
 40
1.125
309
GRIDFORMAT_END
 95
       32
302
GRIDFORMAT
  1
GRIDFORMAT_BEGIN
 90
        0
 91
        1
 62
     0
 92
       -2
340
204
 93
        0
 40
1.125
309
GRIDFORMAT_END
309
TABLEFORMAT_END
  1
CELLSTYLE_BEGIN
 90
        3
 91
        2
300
_DATA
309
CELLSTYLE_END
  0
ENDSEC
  0
EOF
